&title=知らないままで
&artist=ロクデナシ
&first=0
&des_5=Kuzo
&lv_5=13
&des=Kuzo
&clock_count=4
&inote_5=(184){1},,
{8}5,6,4,3,,8,1,7,2,6,3,5,,
{8}4,E1,3,E8,2,E7,1,E6,8,E5,7,E4,6,E3,5,E2,,,,
{8}8pp2[8:1],,8,,5x,6,4,7,3,8,2,C,1b-5[8:1],,,,
{8}8-6[8:1],2-4[8:1],8,2,C,5,6,4,
{8}E1h[4:1],,Ch[4:1],,E5h[4:1],,,,
{8}2h[4:1],,E6,,4,6,3,8,
{8}E4h[2:1],,E5h[4:1],,E6,,,,
{8}7xh[4:1],,E4,A3,2h[4:1],,E6,,
{8}4,4,5,5,6b/3b,,8,1,7-5-3[2:1]/2,,7,1,2h[8:1],,1,1,
{8}1h[4:1],,2h[4:1],,3h[4:1],,C,,
{8}6,6,5,7,3h[4:1],,4h[4:1],,2,,
{8}7/8,1/6,5/2,,C,,
{8}1b,,2b,,4,4,5-8[8:1]/3-8[8:1],,
{8}5/3,,6h[4:1]/2h[4:1],,,,C,,
{8}5,5,2,2,6,6,3,3,
{1}8b<1[2:1],
{8}5-1[8:1],,5,2,2,,6h[4:1],,4-8[8:1],,4,7,7,,
{8}5,4,6,3,7,2,8,1,E7,C,E3,,
{8}6b/3b,,C,,
{8}8xw4[8:1],,,,1w5[8:1],,,,
{8}E7h[4:1],,E5,,E4,,E3,,
{8}1xw5[8:1],,,,8w4[8:1],,,,
{8}E3h[4:1],,E5,,E6,,E7,,3h[4:1],,7b,,,
{8}7,5,6-2[8:1],6,,3,1,2>5[8:1],,1/2,,
{8}7,6,5h[4:1],,2h[2:1],,6-3[8:1],6,,
{8}1,4,2,5,3,6,,
{8}1xw5[8:1],2/8,1,,8w4[8:1],7/1,8,,
{8}E3h[4:1],,E5,,E6,,E7,,
{8}8w4[8:1],7/1,8,,1w5[8:1],2/8,1,,
{8}E7h[4:1],,E5,,E4,,E3,,6h[4:1],,2b,,,
{8}2,4,3-7[8:1],3,,6,8,7<4[8:1],,8/7,,
{8}2,3,4h[4:1],,7h[2:1],,3-6[8:1],3,,
{8}8,5,7,4,6,3,,5h[4:1],,4b,,
{8}3-7[8:1],,3,,8,6,1,5,2,4,
{8}3b-8-2[4:1]*-6-4[4:1],,3,,,,
{8}8,1,7,2,6,3,
{16}5,4,5,4,5,,
{8}6/3,7/2,,C,,
{8}6-2[8:1],,6,,1,3,8,4,7,5,
{8}6b-1-7[4:1]*-3-5[4:1],,6,,,,
{8}C,,1,8,2,7,3,6,
{16}4,5,4,5,4,,
{8}3/6,2/7,,C,,
{8}1h[1:2],,E7,,,,E5,,,,E3,,,,E1,,
{8}5h[1:2],,E7,,,,E5,,,,E3,,,,E1,,
{8}4>5[2:3],,D3,,,,D1,,,,D7,,,,D5,,
{8}5/4>5[2:3],,D3,,,,D1,,,,D7,,,,D5h[4:1],,
{4}7h[2:1],,A3,,5,5,6/4,,
{4}2h[2:1],,A6,,4,4,3/5,,
{4}7h[2:1],,A3,,5,5,6/4,,
{4}2h[2:1],,A6,,C,
{24}A1,D2,A2,D3,A3,D4,A4,D5,A5,D6,A6,D7,
{4}A7,
{8}8bh[8:3],,,2-6b[8:1],,2,3,4,
{24}7,6,5h[24:7],,,,,,,
{8}4h[8:3],,,5,,
{4}B6h[1:1],B5h[4:3],B4h[2:1],B3h[4:1],Cf,
{8}8,7,1,,4,3,5h[8:3],,,2-7[8:1],,,
{8}6-3[8:1],,6,,,4-1[8:1],,,C,,
{16}8,1,2,3,8,7,6,5,8,1,2,3,8,7,6,5,
{16}4bx,3bx,2bx,1bx,8bx,7bx,6bx,5bx,
{4}4bx/C,
{8}1xw5[8:1],7/3,1,,8w4[8:1],2/6,8,,
{8}5hx[4:1],,4,,3,,2,,
{8}8w4[8:1],2/6,8,,1w5[8:1],7/3,1,,
{8}4hx[4:1],,5,,6,,7,,
{8}7h[4:1],,4b,,,
{8}7,5,6-2[8:1],6,,3,1,2>5[8:1],,1/2,,
{8}7,6,5h[4:1],,2h[2:1],,6-3[8:1],6,,
{8}1,4,2,5,3,6,,
{8}8xw4[8:1],6/2,8b,,1w5[8:1],7/3,1b,,
{8}4xh[4:1],,5,,6,,7,,
{8}4w8[8:1],6/2,4b,,5w1[8:1],3/7,5b,,
{8}7xh[4:1],,8,,1,,2,,
{8}2h[4:1],,5b,,,
{8}2,4,3-7[8:1],3,,6,8,7<4[8:1],,8/7,,
{8}2,3,4h[4:1],,7h[2:1],,3-6[8:1],3,,
{8}8,5,7
,4,6,3,,5bw1[2:1],,
{1}5b,
{16},,,,,,,,,,,,1,,8,,
{8}2/7,,
{8}1,8,2,7,3,6,
{16}4,5,4,5,4,,
{8}3/6,2/7,,C,,
{8}3-7[8:1],,3,,8,6,1,5,2,4,
{8}3b-8-2[4:1]*-6-4[4:1],,3,,,,
{8}C,,8,1,7,2,6,3,
{16}5,4,5,4,5,,
{8}3/6,2/7,,,,
{24}1b>1b[1:3]`B1,Cf,B5,A5,
E
