&title=OrBiTal
&artist=Paul Bazooka
&first=-0.9
&des_5=IronSword
&lv_5=13+
&des=IronSword
&inote_5=(130)
{1},
{2}7<4[4:1],2>5[4:1],
7p3[4:1],2q6[4:1],
8<5[4:1],1>4[4:1],
5-8[4:1],4-1[4:1],
{8}8,7,6,5/4,1,2,1,2,
8/1,7,6,5/4,1,2,1,2,
1/8,7,6,5/4,1,2,1,2,
1/8,1/7,6/1s5[16:3],,,,7h[8:1],,
2-5[8:1],5-1[8:1],,,7,7,7/8,7,
7/4,7,7/8,7,4/7,7,{24}7,8,1,2,3,4,
{16}1h[8:1],,6<8[8:1],,3,,,,2,,7>1[8:1],,4,,,,
3,,8>2[8:1],,5,,,,5-1[16:1]b,,5,,,,,,
7-4[8:1],,4-8[8:1],,,,,,2,2,2,2,2/1,,2,,
2/5,,2,2,2/1,,2,,2/5,,2,,{32}2,1,8,7,6,5,4,3,
{16}7,7,1,6,6,2,5,5,3,3,3,3,3/4,,3,,
{8}8-6[8:1],1-5[8:1],8-4[8:1],1-3[8:1],8>6[4:1],,,,
2-5[8:1],1,2/7-4[8:1],8,7/2v5[16:3],1,,,6-1[8:1],
7,6/4-1[8:1],3,4/5v8[16:3],6,,,1-7[8:1],
{16}6,6,1-3[8:1],,5,,1-7[8:1],,6,6,1,,5,,
{8}6/1,7/2,8/3,3,8/4,7/3,6/2,2/6,
{16}5,3,6,2,8<4[8:3],1,8,,2h[8:1],,,,2h[8:1],,,,
2,7,3,6,1>5[8:3],8,1,,7h[8:1],,,,7h[8:1],,,,
{8}8,6,4,2,1/5,1/6,7/1-4[16:1],1/8,
{16}1b,,,,,,5,5,,,3-7[16:1]/7-3[16:1],,3/7,,,,
{16}8b/2h[8:1],,,4b/2h[8:1],,,1b/2,,7,5,6,2,4,3,7,5,
8-4[16:1],8,2-6[16:1],2,8>6[16:3],,2,,8p6[8:1],,,,,,,,
{16}4,4,,5pp7[16:1],4,4,4,4,,,4,4,8-2[8:1],,7-3[8:1],,
{8}8-4[8:1],7-5[8:1],8,7-3[8:1],8<1[16:3],7,8,,
{16}6h[8:1],,8,8,8-4[16:1]*-3[16:1],,,,8b,,,,2,1,2,1,
2h[8:1],,1,1,1-7[16:1]*-6[16:1],,,,1b-3[16:1]*-4[16:1],,,,1b,,,,
{16}6,6,,5,6-2[16:1],6,6,6,,,3,3,1-6[16:1]b*-4[16:1]b,,1,,
{16},,,,,,,,1,2,3,4,1-4[16:1]/5-8[16:1],,,,
{4}1b/5b,3/7-5[16:1],7-3[16:1]/3-8[16:1],3b/7b,
{16}1,2,3,4,5p8[4:1],,5,,8q5[4:1],,,,,,,,
{8}1h[8:1],7v5[8:1],1h[8:1],,1p4[4:1],,4>1[8:1],,
{16}8,7,6,5,4,,4,,3,5,4,6,4,6,5,7,
{8}4/8-2[16:1],,8-5[16:1]/4-8[16:1],,4b/8b,,1,1,
{16}8,7,6,5,4>8[4:1],,4,,8V24[4:1],,,,,,,,
{16}7h[8:1],,,,8/1,8/1,8/1,8/1,8/2h[8:1],,,,1-4[16:1]b/8-5[16:1]b,8/1,8/1,8/1,
{1},
{8}8,7,6>4[16:3],,3>1[16:3],,,,
{8}8,7,6>4[8:1],6,3>1[8:1],3,,,
{4}8/7h[1:1],8,5,4,
4h[4:3],7,6,5,
{16}6,5,6,5,7<4[8:1],,,,2p6[8:1],,,,,,,,
{8}3/4,3/4,4/2>5[8:1],,7p3[8:1],,1-4[8:1],,
,,5h[8:1],,5/4,,,,
{4}1b-4[16:1]b*>4[16:1]b,1b-6[16:1]b*<6[16:1]b,1b,{16}1,1,1,1,
{16}8/1,,5,,3,4,3,4,2-5[16:1]/5-1[16:1],,4/3,,,,,,
8,8,,1,8v5[8:1],8,8,8,8/1>4[8:1],,,,1/8,,,,
5/7,,8,,5,6,1,6,5-2[8:1],,8-3[8:1],,5,,8,,
1-7[8:1],,5,5,1-3[8:1],,5,5,1<5[8:1]*p5[8:1],,,,,,,,
3-6[8:1],,2,,1-4[8:1],,8,,7-2[8:1]*-4[8:1],,6,,,,,,
3,3,4,4,2>8[16:3],2,4,4,2-6[8:1],,,,,,,,
5h[8:1]/4h[8:1],,,,8-4[8:1]/1-3[8:1],,,,8-6[8:1]/1-5[8:1],,,,8/1V35[16:3],,,,
1V75[16:3],,,,,,,,2h[4:1],,,,1h[8:1],,,,
8<5[8:1]/1p4[8:1],,,,8/1,,,,2,2,2,2,7,7,7,7,
3,6,3,6,4,7,4,7,5,5,7,7,1,1,3,,
2/4,,1,,4,3,8,3,4-7[8:1],,1-6[8:1],,4,,1,,
8-2[8:1],,4,4,8-6[8:1],,4,4,8>4[8:1]*q4[8:1],,,,,,,,
6,6,6,6,5/6,,6,,6-1[16:1]/1-4[16:1],,6,,,,,,
2,2,7,7,3,3,8,8,4-1[16:1]/1-6[16:1],,,,1/4,,,,
5h[8:1]/2h[8:1],,,,4h[8:1]/7h[8:1],,,,8/7,,6/5,,3/4,,1/2,,
1/8,,1/7,,6/1,,5,,8/3,,8/2,,1s5[16:1]b/8z4[16:1]b,,,,
{1}1b/8b,
E
