&title=春光献祖国
&artist=科学世纪のShadow
&first=0
&des=Baohua Zhang vs Mike Wallace
&lv_5=13
&inote_5=(155)
{1},
{1},
{1},
{1},
{1},
{1},
{1},
{1},
{1}2pp1[2:1]/6h[1:3],
{1}5p4[2:1],
{1}7qq8[2:1],
{4}1>8[2:1],,,5,
{1}6pp6[2:1]/2pp2[2:1],
{1}7q6[2:1]/2^5[2:1],
{1}7<2[2:1]/5s1[2:1],
{8}1h[4:1]/8h[4:3],,,,E2,E7,B3,A5,
{4}4qq7[2:1],,5h[2:1],,
{4}8qq4[2:1],1,2h[2:1],,
{4}5<4[2:1],,3h[2:1],,
{1}6V84-8[32:15]*V83-8[32:15],
{2}1/7pp3[2:1],4h[2:1],
{4}1pp5[2:1],8,7h[2:1],,
{2}4-8V26[2:1],5h[2:1],
{4}8V24^5-1[32:19],,6-8[32:3],,
{4}2bh[2:1],E1,4h[2:1],E3,
{4}1h[2:1],E5,3h[2:1],E2,
{4}5h[2:1],E6,7h[2:1],E8,
{8}6-4[8:1],,7,7-3[8:1],,8,8hx[4:1],,
{4}6bh[2:1],E5,8h[2:1],E7,
{4}5h[2:1],E1,7h[2:1],E6,
{4}1h[2:1],E2,3h[2:1],E4,
{8}8,8,1,7,2/6,3x,4x,,
{8}1b/7h[4:1],,5,4,3h[4:1]/6,,1,2,
{8}8qq6[32:5]/3,,8pp2[32:5],,8,,7,7,
{8}6/5h[4:1],,1,1,4h[4:1]/3,,8,8,
{8}1h[4:3],E6,E1,B3,E7,A5,E3,,
{8}5/3h[4:1],,1,8,7h[4:1]/2,,5,6,
{8}4qq3[32:6]/7,,4pp5[32:6],,4,,3,3,
{8}2/1h[4:1],,5,5,8h[4:1]/7,,4,4,
{8}5h[4:3],E2,E5,B7,E3,A1,E7,,
{8}8bV24[4:1],,4v1[32:5],4,,6,6h[4:1],,
{8}3V51[4:1],,1^8-4[32:5],1,,7,7h[4:1],,
{8}4V26[4:1],,6V41[32:7],6,,8,8h[4:1],,
{8}1^6[8:1],2,1bx,2v5[8:1],3,2xb,4h[4:1],,
{8}1bV75[4:1],,5v8[32:5],5,,3,3h[4:1],,
{8}6V48[4:1],,8^1-5[32:5],8,,2,2h[4:1],,
{8}5V73[4:1],,3V58[32:7],3,,1,1h[4:1],,
{16}8,,2/6,,3-8b[8:1]*-7b[8:1],,2/4,,{32}3b,,,,,,,,{16}1x/6x,,3x/8x,,
{8}5b^2[8:1]/1,,8-4[8:1]*-3[8:1],,8,,2/5,2-5-3[4:1]/5,
{8},8,8h[4:1],,3-8[8:1],7-3[8:1],3,7,
{8}1,2/4,7,8/5,1,4/3,8,6/5pp8[8:5],
{1}2pp5[2:1]/1,
{8}6^4[8:1]/8,,6/4,3,2^7[8:1],,2/7,6,
{8}5-1[8:1],,5/1,,3-6[8:1],7-2[8:1],3,7,
{8}4h[8:3],3,1,7,1^4[8:1]/8^5[8:1],,1V37b[8:3]/8V62b[8:3],,
{4}1b/8b,,,4b/5b,
{8}4-7[8:1]/1,,4/3,,2-4[8:1],1-5[8:1],2,1,
{8}3^6[8:1],,3/7,,8-4[8:1],3-8[8:1],8,3,
{8}7,6/5,2,1/4,6,5/7,1,3/4qq1[8:5],
{1}8qq5[2:1]/7,
{8}3^5[8:1]/1,,3/5,6,7^2[8:1],,7/2,3,
{8}4-8[8:1],4,8,7,6-3[8:1],2-7[8:1],6,2,
{8}5h[8:3],7,1,3,7^1[8:1]/5,,4v5-7[8:3]*v3-1[8:3],,
{4}4x,,,8b,
{8}2-5[8:1]/1,2,5,6,7-3[8:1],7,3,2,
{8}1-6[8:1],1,6,7,8^3[8:1],5-1[8:1],8,5,
{8}4-7[8:1],4,3,2,1-5[8:1],1,5,6,
{8}7^2[8:1],7,2,3,5^2[8:1],8-4[8:1],5,8,
{8}1-6[8:1],1,6,7,8-4[8:1],8,4,3,
{8}2-7[8:1],2,7,6,5^8[8:1],2-6[8:1],5,2,
{8}1-7[8:1],1,4-2[8:1],4,8-4[8:1],7,6/8,5,
{16}3,3,4,,2/7,,6,6,5^3[8:1]*^7[8:1],,,,5bw1[8:1],,,,
{1}5bpp4[2:3]*p4[2:3],
{1},
{4}E4,E6,E4,E6,
{4}E4,E6,{48}E4,A4,,,,,,,,,,,E6,A5,,,,,,,,,,,
{4}2h[4:3],D2,D3,D4,
{4}6h[4:3],D8,D7,D6,
{4}E2h[4:1],A8h[4:1],E6h[4:1],A4h[4:1],
{4}E2h[4:1],A8h[4:1],E6h[4:1],A4h[4:1],
{8}1bh[2:1],,3,,8h[2:1],,6,,
{8}1h[2:1],,2,,8h[4:1],,7<8[8:15],,
{2}8x-5[8:1],6x-2[8:1],
{2}1x-5[8:1],4x-7[8:1],
{8}1hbx[8:3],2,3,4,5xh[8:3],6,7,8,
{8}1hx[8:3],2,3,4,5xh[8:3],6,7,8,
{8}1,1/2,1/3,1/4,1/5,1/6,1/7,1/8,
{12}1x,2x,3x,{16}4x,5x,6x,7x,{24}8x,1x,2x,3x,4x,5x,{32}6x,7x,8x,1x,2x,3x,4x,5x,
{8}6bx-1[8:1],,6/1,2,3/4^1[8:1],,6/4^7[8:1],5,
{8}4-8[8:1]/2,,4pp6[32:5]*qq2[32:5],,4x,,3/5,3/5,
{8}2-5[8:1]/6,4,2/1,8,7-3[8:1]/4,1,7/8,2,
{16}1/4,,3,5,2,,6,6,8,7,1,8,2h[4:1],,,,
{8}1-4[8:1],,1/5,6,7/5^8[8:1],,5^2[8:1]/3,4,
{8}5-1[8:1]/7,,5qq4[32:5]*pp6[32:5],,5x,,6x/4x,6/4,
{8}7-4[8:1]/3,5,7/8,1,2-6[8:1]/5,8,2/1,7,
{16}8/5,,6,4,7,,3,3,5-1[8:1],4,6,5,7h[4:1],,,,
{16}8b^5[8:1],,,1,8,,2-6-2[4:1],,,,4,,8,,8,,
{16}1^4[8:1],,,8,1,,7-3-7[4:1],,,,5,,1,,1,,
{16}8^3[8:1],,,7,8,,5-1-5[4:1],,,,8,,4,,4,,
{16}3,4,3,4,2b/5,,8,1,8,1,2/7b,,6,5,6,5,
{16}7b-4[8:1]/4x,,,8,7,,1-5-2[4:1],,,,4,,8,,7,,
{16}3^6[8:1]/6,,,1,3,,8-4-7[4:1],,,,5,,1,,2,,
{16}2,6,4,5,3,4,2,6,4,5,3,4,2,6,4,5,
{16}1x,,7h[4:1]/8,,1-5[8:1],2,3,4,1b/5,,,,2,4,3,5,
{16}4b^1[8:1],,1,,4/6,,7,,6-8[32:3],8,5-1[8:1],1,6x,,5x,,
{16}7-4[8:1],,4,,7/1,,2,,3-5[8:1],5,2-6[8:1],6,3x,,2x,,
{16}4,,8/5,,7,,6/1,,2,5,3,4,1,,7,7,
{16}8,,1/5,,2,4,8,5,1,6,3,7,5,8,4,1,
{16}3^8[8:1],,8,,3/4,,5,,6-1[8:1],1,5-2[8:1],2,6x,,5x,,
{16}8^5[8:1],,5,,8/2,,3,,4-8[8:1],8,5-7[32:3],7,4x,,5x,,
{16}1h[8:1],,4,4,3,,2/5,,7,8,6,1,7,,2,2,
{16}5,4,6,2,7qq7[16:5]/1xpp1[16:5],,8x,,1xb,,,,D7f/D2,,,,
{16}5^8[8:1],,8,,5/3,,2,,3-1[32:3],1,4-8[8:1],8,3x,,4x,,
{16}2-5[8:1],,5,,2/8,,7,,6-4[8:1],4,7-3[8:1],3,6x,,7x,,
{16}5,,1/4,,2,,3/8,,7,4,6,5,8,,2,2,
{16}1,,8/4,,7,5,1,4,8,3,6,2,4,1,5,8,
{16}6^1[8:1],,1,,6/5,,4,,3-8[8:1],8,4-7[8:1],7,3x,,4x,,
{16}1^4[8:1],,4,,1/7,,6,,5-1[8:1],1,4-2[32:3],2,5x,,4x,,
{16}8h[8:1],,5,5,6,,7/4,,2,1,3,8,2,,7,7,
{16}4,5,3,6,1V35b[8:3],,1V75b[4:1],,1x,,,,,,,,
{4}3b>6[32:11]/6b<3[32:11],,,E3/E7/C,
{8}4bq5[8:3],5p4[4:1],,,,,B6/B3,C,
{8}4-1[8:1],4,5-8[8:1],5,4-1[8:1],3,5-8[8:1],6,
{8}4-1[8:1],2,5-8[8:1],7,4-1-4b[4:1],1,5x,8x,
{8}6,3,24,75,31,68,{16}1-6[8:1]/5-2[8:1],2/6,3/7,4/8,
{1}1bx/5bx,
&inote_6=(155)
{1},
{1},
{1},
{1},
{1},
{1},
{1},
{1},
{1}2pp1[2:1]/6h[1:3],
{1}5p4[2:1],
{1}7qq8[2:1],
{4}1>8[2:1],,,5,
{1}6pp6[2:1]/2pp2[2:1],
{1}7q6[2:1]/2^5[2:1],
{1}7<2[2:1]/5s1[2:1],
{8}1h[4:1]/8h[4:3],,,,E2,E7,B3,A5,
{4}4qq7[2:1],,5h[2:1],,
{4}8qq4[2:1],1,2h[2:1],,
{4}5<4[2:1],,3h[2:1],,
{1}6V84-8[32:15]*V83-8[32:15],
{2}1/7pp3[2:1],4h[2:1],
{4}1pp5[2:1],8,7h[2:1],,
{2}4-8V26[2:1],5h[2:1],
{4}8V24^5-1[32:19],,6-8[32:3],,
{4}2bh[2:1],E1,4h[2:1],E3,
{4}1h[2:1],E5,3h[2:1],E2,
{4}5h[2:1],E6,7h[2:1],E8,
{8}6-4[8:1],8,6,7-3[8:1],1,7,4hx[4:1],,
{4}6bh[2:1],E5,8h[2:1],E7,
{4}5h[2:1],E1,7h[2:1],E6,
{4}1h[2:1],E2,3h[2:1],E4,
{8}8,8,1,7,2/6,A3/E4,A5/E5,,
{8}1/7h[4:1],,5,4,3h[4:1]/6,,1,2,
{8}8qq6[32:5]/3,,8pp2[32:5],,8,,7,7,
{8}6/5h[4:1],,1,1,4h[4:1]/3,,8,8,
{8}1h[4:3]/A7,E6,E1,B3,E7,A5,E3/B2/B3,,
{8}5/3h[4:1],,1,8,7h[4:1]/2,,5,6,
{8}4qq3[32:6]/7,,4pp5[32:6],,4,,3,3,
{8}2/1h[4:1],,5,5,8h[4:1]/7,,4,4,
{8}5h[4:3]/A3,E2,E5,B7,E3,A1,E7/B6/B7,,
{8}8bV24[4:1],,4v1[32:5],4,,6,6h[4:1],,
{8}3V51[4:1],,1^8-4[32:5],1,,7,7h[4:1],,
{8}4V26[4:1],,6^3[32:5],6,,8,8h[4:1],,
{8}1^6[8:1],2,1bx,2v5[8:1],3,2xb,4h[4:1],,
{8}1bV75[4:1],,5v8[32:5],5,,3,3h[4:1],,
{8}6V48[4:1],,8^1-5[32:5],8,,2,2h[4:1],,
{8}5V73[4:1],,3^6[32:5],3,,1,1h[4:1],,
{16}8,,2/6,,3-8b[8:1]*-7b[8:1],4,3,4,{32}B3,Cf,B7,,,,,,{16}1x/6x,,3x/8x,,
{8}5bV38[4:1]/1,,7-3[8:1],,7,,2/4,2-5[8:1]/4,
{8},8,8-4[8:1],,8^5[8:1]*^3[8:1],,8,,
{8}3/4,2,5/6,7,3/4,1,5/7^2[8:1],,
{1}7qq4[2:1]/4qq1[2:1],
{8}8h[4:1]/4,,2^7[8:1],4/5,6q3[16:3],,3,4,
{8}5^3[32:3]*^7[32:3],,5p4[4:1],,5/4q5[4:1],,,,
{8}2h[8:3],5,6,7,1^4[8:1]/8^5[8:1],,1V37b[8:3]/8V62b[8:3],,
{4}1b/8b,,,A6/E6/B5/B4/E4/A3f,
{4}2^5[8:1]/1^6[8:1],2pp6[8:3],6-1[8:1]/2,,
{4}7^4[8:1]/8^3[8:1],7qq3[8:3],3-8[8:1]/7,,
{8}1/5,2,8/4,7,2/4,3,5/6^3[8:1],,
{1}6pp1[2:1]/2pp5[2:1],
{8}1h[4:1]/5,,7^2[8:1],5/4,3p6[16:3],,6,5,
{8}4^6[32:3],4,3,2,2p6[8:1]/7q3[8:1],,,,
{8}4/5h[8:3],3,2,1,7^1[8:1]/8,,4v5-7[8:3]*v3-1[8:3],,
{4}A4f/D4/D5,,,8b,
{8}2-5[8:1]/1,2,5,6,7-3[8:1],7,3,2,
{8}1-6[8:1],1,6,7,8^3[8:1],5-1[8:1],8,5,
{8}4-7[8:1],4,3,2,1-5[8:1],1,5,6,
{8}7^2[8:1],7,2,3,5^2[8:1],8-4[8:1],5,8,
{8}1-6[8:1],1,6,7,8-4[8:1],8,4,3,
{8}2-7[8:1],2,7,6,5^8[8:1],2-6[8:1],5,2,
{8}1-7[8:1],1,4-2[8:1],4,8-4[8:1],7,6/8,5,
{16}3,3,4,,2/7,,6,6,5^3[8:1]*^7[8:1],,,,5bw1[8:1],,,,
{1}5bpp4[2:3]*p4[2:3],
{1},
{4}E4,E6,E4,E6,
{4}E4,E6,{48}E4,A4,,,,,,,,,,,E6,A5,,,,,,,,,,,
{4}2h[4:3],D2,D3,D4,
{4}6h[4:3],D8,D7,D6,
{4}E2h[4:1],A8h[4:1],E6h[4:1],A4h[4:1],
{4}E2h[4:1],A8h[4:1],E6h[4:1],A4h[4:1],
{8}1bh[2:1],,3,,8h[2:1],,6,,
{8}1h[2:1],,2,,8h[4:1],,7<8[8:15],,
{2}8x-5[8:1],6x-2[8:1],
{2}1x-5[8:1],4x-7[8:1],
{8}1hbx[8:3],2,3,4,5xh[8:3],6,7,8,
{8}1hx[8:3],2,3,4,5xh[8:3],6,7,8,
{8}1,1/2,1/3,1/4,1/5,1/6,1/7,1/8,
{12}1x,2x,3x,{16}4x,5x,6x,7x,{24}8x,1x,2x,3x,4x,5x,{32}6x,7x,8x,1x,2x,3x,4x,5x,
{8}6bx-1[8:1],,6/1,2,3/4^1[8:1],,6/4^7[8:1],5,
{8}4-8[8:1]/2,,4pp6[32:5]*qq2[32:5],,4x,,3/5,3/5,
{8}2-5[8:1]/6,4,2/1,8,7-3[8:1]/4,1,7/8,2,
{16}1/4,,3,5,2,,6,6,8,7,1,8,2h[4:1],,,,
{8}1-4[8:1],,1/5,6,7/5^8[8:1],,5^2[8:1]/3,4,
{8}5-1[8:1]/7,,5qq4[32:5]*pp6[32:5],,5x,,6x/4x,6/4,
{8}7-4[8:1]/3,5,7/8,1,2-6[8:1]/5,8,2/1,7,
{16}8/5,,6,4,7,,3,3,5-1[8:1],4,6,5,7h[4:1],,,,
{16}8b^5[8:1],,,1,8,,2-6-2[4:1],,,,4,,8,,8,,
{16}1^4[8:1],,,8,1,,7-3-7[4:1],,,,5,,1,,1,,
{16}8^3[8:1],,,7,8,,5-1-5[4:1],,,,8,,4,,4,,
{16}3,4,3,4,2b/5,,8,1,8,1,2/7b,,6,4,5,3,
{16}7b-4[8:1]/2x,,,8,7,,1-5-2[4:1],,,,4,,8,,7,,
{16}3^6[8:1]/6,,,1,3,,8-4-7[4:1],,,,5,,1,,2,,
{16}2,6,4,5,3,4,2,6,4,5,3,4,2,6,4,5,
{16}1x,,7h[4:1]/8,,1-5[8:1],2,3,4,1b/5,,,,2,4,3,5,
{16}4b^1[8:1],,1,,4/6,,7,,6-8[32:3],8,5-1[8:1],1,6x,,5x,,
{16}7-4[8:1],,4,,7/1,,2,,3-5[8:1],5,2-6[8:1],6,3x,,2x,,
{16}4,,8/5,,7,,6/1,,2,5,3,4,1,,7,7,
{16}8,,1/5,,2,4,8,5,1,6,3,7,5,8,4,1,
{16}3^8[8:1],,8,,3/4,,5,,6-1[8:1],1,5-2[8:1],2,6x,,5x,,
{16}8^5[8:1],,5,,8/2,,3,,4-8[8:1],8,5-7[32:3],7,4x,,5x,,
{16}1h[8:1],,4,4,3,,2/5,,7,8,6,1,7,,2,2,
{16}5,4,6,3,7qq7[16:5],1pp1[4:1],8,2,7,,,,,,,,
{16}5^8[8:1],,8,,5/3,,2,,3-1[32:3],1,4-8[8:1],8,3x,,4x,,
{16}2-5[8:1],,5,,2/8,,7,,6-4[8:1],4,7-3[8:1],3,6x,,7x,,
{16}5,,1/4,,2,,3/8,,7,4,6,5,8,,2,2,
{16}1,,8/4,,7,5,1,4,8,3,6,2,4,1,5,8,
{16}6^1[8:1],,1,,6/5,,4,,3-8[8:1],8,4-7[8:1],7,3x,,4x,,
{16}1^4[8:1],,4,,1/7,,6,,5-1[8:1],1,4-2[32:3],2,5x,,4x,,
{16}8h[8:1],,5,5,6,,7/4,,2,1,3,8,2,,7,7,
{16}4,5,3,6,1V35b[4:1]*V75b[4:1],7,2,8,1x,,,,,,,,
{4}3b>6[32:11]/6b<3[32:11],,,E3/E7,
{8}4bq5[8:3],5p4[4:1],,,,,B6/B3,E6/E4,
{8}4-1[8:1],4,5-8[8:1],5,4-1[8:1],3,5-8[8:1],6,
{8}4-1[8:1],2,5-8[8:1],7,4-1[8:1],1,5-8[8:1],8,
{8}4,5,24,75,31,68,{16}1-6[8:1]/5-2[8:1],2/6,3/7,4/8,
{1}1bx/5bx,
