&title=Presto
&artist=久保田修
&first=0
&des=Phoshydriodi
&lv_5=14
&inote_5=(136)
{1},
{16},,,,,,,,,,,,,,,,
{16},,,,,,,,,,,,,,,,
{16},,,,,,,,,,,,,,,,
{16},,,,,,,,,,,,,,,,
{16},,,,,,,,,,,,,,,,
{16},,,,,,,,,,,,,,,,
{16}8b<2[2:3],,,,8,,,,8,,,,8,,,,
{16}8,,,,8,,,,8,,,,8-4[8:1],,,,
{16}8`1>7[2:3],,,,1,,,,1,,,,1,,,,
{16}1,,,,1,,,,1,,,,1-5[8:1],,,,
{16}1`8z4[2:3],,,,8,,,,8,,,,8,,,,
{16}8,,,,8,,,,8,,,,,,2,4,
{16}3,5,,6h[4:1],,5,,4,5,3,,2h[16:5]/4,,,,,
{16}4,3,,4/6h[16:5],,,,,4,5,,2h[16:3]/4,,,8,1,
{16}7,1,,6h[4:1],,5,,4,5,3,,2h[16:5]/4,,,,,
{16}4,3,,4/6h[16:5],,,,,4,5,,2h[4:1]/4,,,,4,
{16}3,5,4,6-2[8:1],5,7h[8:1],,6-8[8:1],,5,,2,,,,4,
{16}6,4,5,3-7[8:1],4,2h[8:1],,3^8[8:1],,4,,7,,,5,,
{12}3,8,8,6,8,8,{16}1-5[8:1],7,,2/6h[4:1],,,,,
{12}6,1,1,3,1,1,{16}8-4[8:1],2,,3h[4:1]/7,,,,,
{16}1-5[8:1],7,,2/6h[4:1],,,,,8,4,6,2-6[8:1],4,1,,7h[16:3],
{16},,,7,2-6[8:1],5,,,2,8-4[8:1],,8,,5,,,
{16}3,5,,1/7,,4,6,2,,1/7,,7,1,,1,8,
{16}2,6,4,5,3,7,1,8,2,6,3,4,2,5,4,6,
{16}1,2,3,4,1/5,8,7,6,3-6[8:1]/5,2/4,,,1,,,,
{16}7,3,5,4,6,2,8,1,7,3,6,5,7,4,5,3,
{16}8,7,6,5,4/8,1,2,3,4,7,4,6,3,5,2,7,
{16}1,8,2,8,3,8,4>5[8:60],8,5h[2:1],,,,,,,,
{16},,,,,,,,,,,,,,,,
{16},,,,,,,,,,,,,,,,
{16},,,,,,,,,,,,,,,,
{16},,,,,,,,,,,,,,,,
{16}1,,,,1,,,,1,,,,1,,,,
{16}1,,,,1,,,,1,,,,1,,,,
{16}1,,,,1,,,,1,,,,1,,,,
{16}1,,,,1,,,,1,,,,,2,3,4,
{16}5/6,7,,2h[8:1]/8,,{32}6,5,{16},2,3-5[8:1],2,1,2,,6h[8:1],,,
{16},3/7,,3,4,5^3[8:1],,7,,7,6,5^7[8:1],,2,,2,
{16}3,4^2[8:1],,6,,6,5,4^6[8:1],,1,,1,2,3h[16:3],,,
{16},3/6,5,,2/6,5,,{32}6-1[8:1],5,2,3,{16}4-1[8:1],,6,,4,,5,
{16}3,5,4,6-2[8:1],5,7-3[8:1],,8-4[8:1],,7,,8,,,,4,
{16}6,4,5,3^6[8:1],4,2-6[8:1],,1^6[8:1],,2,,1,,,3,,
{12}3,8,8,6,8,1,7,1,1,3,1,8,
{16}2/7-4[8:1],,,3,7,,8p7[4:1]*q1[4:1],,,,,,,,,,
{16}2,6,4,5,3,7,1,8,2,6,3,4,2,5,4,6,
{16}1,2,3,4,1/5,8,7,6,3-6[8:1]/5,2/4,,,1,,,,
{16}7,3,5,4,6,2,8,1,7,3,6,5,7,4,5,3,
{16}8,7,6,5,4/8,1,2,3,4,7,4,6,3,5,2,7,
{16}1,8,2,6,4,5,3,6,5,7,1,8,2,7,3,6,
{16}4,5,3,7,4,5,2,4,1,2,3,4,5/7,,8-5[8:1],,
{16}5,,1-4[8:1],,4,,5-8[8:1],,8,,4-1[8:1],,1,,8-5[8:1],,
{16}5-1[8:1],,1-4[8:1],,4,,2,,3,,7,7,1-5[2:7],1,5h[8:17],,
{16},,,,,,,,,,,,,,,,
{16},,,,,,,,,,,,,,,,
{16},,,,,,,,,,,,,,,,
{16},,,,,,,,,,,,,,,,
