&title=オモイヨシノ full ver
&artist=loos feat. 柊莉杏
&first=0
&des=yuUuKa
&des_5=
&lv_5=13+
&inote_5=(168){4},{8},,,,,,2,
4,3,5,7,5,6,4,
2,3,4,5,8,7,6,5,
{4}2>5[4:1],5<8[4:1],8>3[4:1],3<6[4:1],
{1}7p2[2:1],
{8}7,4,6,4,5h[8:3],4,3,2,
1h[8:1],6,1h[8:1],5,1h[8:1],6,1h[8:1],7,
2,5,3,5,4h[8:3],5,6,7,
{4}8-4[8:1],8-6[8:1]/1-5[8:1],1/8,1b,
{8}8/2,{16}6,5,{8}7,2h[4:1],4,7h[4:1],5,3,
8,{16}3,4,{8}2,7h[4:1],5,2h[4:1],4,6,
1,{16}8,1,{8}8,4h[4:1],5,8h[4:1],1,4,
{4}8-6[8:1]/1-5[8:1],8-4[8:1]/1-3[8:1],8/1,{8}7/2,5/4,
6<1[8:1],,,3V15[4:1],,3,{4}8V26[4:1],
{8}8,3,,3V51[4:1],,3,{4}6,
{8}2,8,3,7,4,6,3,5,
2,4,3,5,4,{16}6,5,{8}7,3,
{1}2V83[8:5],
{4}7-4[8:1],{8}2,1>4[8:1],,6,{4}7V16[8:7],
,,,,2-5[8:1],
{8}7,8V64[4:1],,3,2,1,
{1}8<1[1:1],
{8},,,5V71[4:1],,2,3,4,
{4}5-2[8:1],{8}5/7,8,{4}1v6[8:1],1/3qq3[8:3]*pp3[8:3],
{8},,,,,4,{4}4b,
{8}7h[8:1],{16}5,6,{8}5,7,2h[8:1],{16}4,3,{8}4,2,
6h[8:1],{16}8,7,{8}8,6,3h[8:1],{16}1,2,{8}1,3,
8h[8:1],{16}5,6,{8}5,7,1h[8:1],{16}4,3,{8}4,2,
7h[8:1],{16}1,8,{8}1,7,3h[8:1],{16}5,4,{8}5,3,
6h[8:1],{16}4,5,{8}4,6,2h[8:1],{16}8,1,{8}8,2,
7h[8:1],{16}3,4,{8}2,7,2h[8:1],{16}6,5,{8}7,2,
8v5[8:1]*v3[8:1],8,{4}8b,1v4[8:1]*v6[8:1],1b,
5v4[8:1],3p6[8:1],7>2[8:1],2b,
3-7[8:1],3w7[8:1],{8}3,,,5h[8:3],
,3,{4}3,2h[8:3],{8}6,7,
{4}8-4[8:1],8w4[8:1],{8}8,,,2h[8:3],
,4,{4}4,5h[8:3],{8}1,1,
{4}5q1[8:1]/1q5[8:1],5>1[8:1]/1<5[8:1],{8},,,2h[8:3],
,7,{4}7-4[8:1],7/3v8[8:1],3/7,
{8}7/1,{16}8,8,{8}6,{16}1,1,{8}3,{16}8,8,{8}6,{16}1,1,
{1}3bq6[2:1],
{8}4,5,6>1[4:1],7,{4}8h[8:1],{8}7,6,
5-8[8:1],4,{4}5/3>7[4:1],7>3[4:1],{8}4,5,
6<1[8:1],5,4,3,2>5[8:1],1,8,7,
6,7,8/1,2,{2}4-6[8:1]/3-1[8:1],
{8}5,4,3<8[4:1],2,{4}1h[8:1],{8}2,3,
4-1[8:1],5,{4}4/6<2[4:1],2<6[4:1],{8}5,4,
3>8[8:1],4,5,6,7<4[8:1],8,1,2,
3,5,4/3,6,{2}4/3>8[8:1],
{8}7-4[8:1],8,7/1-5[8:1],8,{4}1/7-2[8:1],{8}7/3-6[8:1],4,
3/7-4[8:1],8,{4}7/2<6[4:1],6V82[4:1],4,
4-7[8:1],4/8v3[8:1],8/6-1[8:1],6/4,
{8}8/4,7/3,6/2,5/1,{2}4-7[8:1]/8v3[8:1],
{4}2-7[8:1],2/6-1[8:1],6/4-8[8:1],4/6-3[8:1],
6/2-7[8:1],2/6-1[8:1],6-3[8:1]/2-7[8:1],6/2,
{8}5,{16}3,4,{8}2,1/8,7,{16}5,6,{8}4,2/1,
{32}3,4,5,6,7,8,1,2,3,4,5,6,7,8,1,2,3,4,5,6,7,8,1,2,{4}7/3>8[8:1],
3/6>3[8:1],6/1<6[8:1],1/4>1[8:1],4/7,
{8}8/7,6,5/4,3,{4}2/1,{8}8>3[8:1],7,
{4}8/5<8[8:1],5/2>5[8:1],2/7>2[8:1],7/4,
{8}4/5,6,7/8,6,5/3,{16}2h,4h,{8}8h,6,
{4}2<7[8:1],2/5>2[8:1],5/8<5[8:1],8,
{8}4/3,2,1/8,7,{4}6/5,1>4[8:1],
1/6<1[8:1],6/3<6[8:1],3/8>3[8:1],8/5,
{8}4b/8b,7b/3b,6b/2b,5b/1b,{4}4b-7[8:1]/8bv3[8:1],8/4<4[2:3],
{8},,,,,,,,,,,,,,,,7h[8:1],
{16}5,6,{8}5,7,2h[8:1],{16}4,3,{8}4,2,
6h[8:1],{16}8,7,{8}8,6,3h[8:1],{16}1,2,{8}1,3,
8h[8:1],{16}5,6,{8}5,7,1h[8:1],{16}4,3,{8}4,2,
7h[8:1],{16}1,8,{8}1,7,3h[8:1],{16}5,4,{8}5,3,
{4}6v1[8:1],{8}6/4,3,{4}2-5[8:1],2/6pp6[8:3]*qq6[8:3],
{8},,,,,3,{4}3b,
{8}7h[8:1],{16}5,6,{8}5,7,2h[8:1],{16}4,3,{8}4,2,
6h[8:1],{16}8,7,{8}8,6,3h[8:1],{16}1,2,{8}1,3,
8h[8:1],{16}5,6,{8}5,7,1h[8:1],{16}4,3,{8}4,2,
7h[8:1],{16}1,8,{8}1,7,3h[8:1],{16}5,4,{8}5,3,
6h[8:1],{16}4,5,{8}4,6,2h[8:1],{16}8,1,{8}8,2,
7h[8:1],{16}3,4,{8}2,7,2h[8:1],{16}6,5,{8}7,2,
8-5[8:1]*-3[8:1],8,{4}8b,{8}1-4[8:1]*-6[8:1],1,{4}1b,
3<6[8:1],7p2[8:1],1v8[8:1],7b,
1q5[8:1]/5q1[8:1],1<6[8:1]/5>2[8:1],{8},,,5h[8:3],
,3,{4}3,2h[8:3],{8}6,7,
{4}8<4[8:1]/4>8[8:1],4q8[8:1]/8q4[8:1],{8},,,7h[8:3],
,1,{4}1,2h[8:3],{8}6,5,
{4}4-8[8:1],4w8[8:1],{8}4,,,7h[8:3],
,2,{4}2-5[8:1],2/6v1[8:1],6/2,
{8}2/8,{16}7,5,{8}6,{16}2,4,{8}3,{16}8,5,{8}6,{16}1,4,
{1}3q6[2:1],
8<8[1:2],
,8<8[1:2],
,4>4[1:2],
,1<2[8:13],
{8},,,,,,,,6,
6,5,4,{4}4,{8}3,3,
4,5,{4}5-8[4:1],{2}4v1[4:1],
{4}7,{8}7h[8:1],3h[8:1],6h[8:1],2h[8:1],8h[8:1],3h[2:1],
1,8,7,6,{4}6q2[4:1]/2q6[4:1],2<6[2:1]/6>2[2:1],
{8},,,,,,3/7,4/8,
{4}5/1p5[4:1],5p1[4:1],1p5[4:1],5<1[4:3]*>1[4:3],
{8},,,,,,,,5/4,
4/5,,2/7,,1/8,{4}3/6,
2<7[8:1],{8}2,6>3[8:1],,6,7,8,
1/2,3,5/4,3,{4}8/2>5[8:1],{8}2/8,7,
{4}6>3[8:1],{8}6,2<7[8:1],,2,3,4,
5/6,7,8/1,2,3/4,{16}6,5,{8}7,8,
{4}1/2<7[8:1],{8}2,6>3[8:1],,6,7,8,
1/2,3,4/5,6,{4}1/7<4[8:1],{8}7/1,2,
{4}3>8[8:1],{8}3,7<4[8:1],,7,8,1,
1/5,2/6,3/7,8/4,{2}1h[4:1]/5h[4:1],
{8}5/1,4/8,7/3,6/2,{2}5/1,
{8}5/1,5/1,2/6,2/6,{4}7/3,7v2[8:1]/3-6[8:1],
{1}3>3[2:15]/7<7[2:15],
,,,,,,,7>7[4:31]/3<3[4:31],
,,,,,,,,,{4}1V75[4:1],
{8}4,3,{4}2V86[4:1],{8}5,4,
{4}3V17[4:1],{8}6,5,4h[8:1],3h[8:1],2h[8:1],1h[8:1],
{4}8<5[4:1],5>2[4:1],2<7[4:1],6,
{8}5,4,3,2,{4}1V35[16:3],1,
8V24[4:1],{8}5,6,{4}7V13[4:1],{8}4,5,
{4}6V82[4:1],{8}3,4,{4}5V71[4:1],{8}2,3,
4,{16}7,5,{8}6,{16}2,4,{8}3,{16}8,5,{8}6,{16}1,4,
{1}3h[1:2],
{8},,,,,,,,,,,,,,,,6/5,
{16}3,4,{8}2,8,1/7,4,8/2,6,
2/1,{16}7,8,{8}6,4,5/3,8,4/6,2,
7-4[8:1],7,8V24[4:1],8,5,6,7,8,
3/1-4[8:1],2,7/1-6[8:1],8,{4}3/1,2b,
{8}3/4,{16}6,5,{8}7,1,8/2,5,1/7,3,
7/8,{16}2,1,{8}3,5,4/6,1,5/3,7,
2-5[8:1],2,1V75[4:1],1
,4,3,2,1,
8-3[8:1],8,7-4[8:1],7,{4}2,3b,
{8}3/4,{16}6,5,{8}7,1,8/2,5,1/7,3,
7/8,{16}2,1,{8}3,5,4/6,1,5/3,7,
2-5[8:1],2,1V75[4:1],1,4,3,2,1,
6b/8b-5[8:1],7b,2b/8b-3[8:1],1b,{4}6b/8bw4[8:1],8b,
{8}5/6,{16}8,1,{8}7,2,4/3,{16}6,5,{8}7,8,
{4}1/2-6[8:1],2/3-7[8:1],3/4-8[8:1],4/5,
{8}7b/1b,{16}3,4,{8}2b,1/8,4b/3b,{16}6,5,{8}7b,8/1,
{16}3b,5,1,6,4b,8,3,5,{32}1b,2,3,4,5,6,7,8,{48}1b,2,3,4,5,6,7,8,1,2,3,4,
{1}5b<4[4:5]*<4[4:5],
{12},,,,,,,,,,,,,,,,,,4b,
4b,
E
