&title=Verse X
&artist=Yu_Asahina/orangentle
&first=0.19
&lv_5=1
&des_5=
&inote_5=
(205)
E
&lv_6=14.9
&des_6=X-nocileth-IV
&inote_6=
(205){4},{24},,,,,,,,,,,,,,,,,,5b/1b,
6/2,7/3,8/4,{6}5-2-7[12:19]/1-6-3b[12:19],{1},{4},,,{6},{4}2h[4:9]/7h[4:9],
{1},,{4},,{8}A6,
A5,A4,B6,B5,B4,{4}3v2-4-6[2:1],
7h[8:1],{8}8,8,,,A2,A3,
A4,B2,B3,B4,{4}6v5V71[2:1],3h[8:1],
{8}4,4,,4,{2}4V61[4:1],
{8},,1,1h[4:1],,2,{4}2h[4:1],
3v2V46[2:1],6h[8:1],{8}7,7,,,8,
8h[4:1],,7,{4}7h[4:1],6v7V53[2:1],
3h[8:1],{8}2,2,,1,{4}1-6[8:1]*-4[8:1],
{8}A1f,,,5b-1[8:1]/3b-7[8:1],{24},,,,,,,,,,,,{12}2,
2,4,3,5,4,7,7,5,6,4,5,
{16}3,4,3,4,{4}2h[8:1],{16}6,5,6,5,{4}7h[8:1],
{8}2>5[8:1],{16}2,1,{4}2,{8}6<1[8:1],{16}6,5,{4}6,
{8}2,{16}2,4,{8}3,3,{2}5-2[8:1]/4-8[8:1],
{8}1/7h[4:1],2,3,7/4h[4:1],6,5,3,2/4-8[8:1],
1,4/2-5[8:1],,2,1,8,{4}7bh[8:1],
{8}8/2h[4:1],7,6,2/5h[4:1],3,4,6,7/5-1[8:1],
8,5/7-4[8:1],,7,8,1,2,3/5h[8:1],
,6/4h[8:1],,7h[8:1]/5-2<8[4:1],,E7,{4}E6,
{8}7<4[8:1],{16}7,8,{8}7,1h[4:1],,,4<7[8:1],{16}4,3,
{8}4,2h[4:1],{16},,,,8/7,1,2,3,{4}4h[8:3]/5<6-8[8:1],
,C,{8}1b,6,3,{16}6,2,
,2,{8}6,4,6,3,6,2,{16}8,1,
8,1,{8}8,{4}1b-6[8:1],7-4[8:1],{16}5-2[8:1],,,1-4[8:1],
,,{8}8b,,,7-3[8:1],3-6[8:1],{4}7h[8:3],
{8},,3b>8[8:1],4,5,6>3[8:1],7,8,
1b<6[8:1],2,3,4>1[8:1],5,6,7-4[8:1],8-3[8:1],
7,8,,8b-5[8:1]*-3[8:1],7/1,8,,4-1[8:1]*-7[8:1],
3/5,4,,6<1[8:1],6,4>1[8:1],4,5w1[8:1],
5,5,,3b<6[8:1],2,3,2-6[8:1],3,
2,1<6[8:1],3,1,2-6[8:1],1,2,3,
,5b>1[8:1],,8/5,7,6/8,5,3/4<8[8:1],
,1/4,2,3/1,4,{32}6/5-1[8:1],4,3,2,1,8,7,6,{8}5b,
,4/6b,6,5/6,,5/3b,3,3/1,
{4}7/3,{8}1,2,3,6/3bV51[4:1],{4}6b-8[8:1],
{8},,7/5,8,4/2,1/8,8/1,{16}2,7,
2,7,{8}1b/6b,6/1,1/6,,3b/8b,{4}3/8,
{16}1b/6b,,,7b/8b,,,{8}6b/1b,{16}2V84[16:3],2v4[8:1],,1,{4}2,
{24},,,8,7,6,5,4,3,2,1,8,7,6,5,4,3,2,1,8,7,6,5,4,
3,2,1,8,7,6,5,4,3,2,{12}1,{24},,,,,,,,,,,,,,,{8}5b,
{16},,,,,,,,,,,,,,1/8,
2/7,6/3,5/4h[16:7],,,,,,,{4}8s4[4:1]*z4[4:1],
{8},,,,7h[16:1]/3b-5[8:1],7h[16:1],3/7h[16:1],7h[16:1],
7h[16:1]/2-4[8:1],7h[16:1],2/7h[16:1],7,{16}3x/8x>3[8:1],7x,6x,5x,4x>6[4:1],5x,6x,7x,
{4}8x,C,{8}1b-3[8:1],8,1-5[8:1],5-3[8:1],
1,7-3[8:1],8,7-5[8:1],4,7,{24}2b>5[8:1],1,8,7,,,1b,
8,7,6,,,8b,7/1,6/2,5/3,{12}4,{16}2x,6,2,6,{8}2b>5[8:1],{16}1,8,
{8}2-6[8:1],{16}6,6,{8}2,{16}7,7,{8}2-5[8:1],{16}1-6[8:1],8,{8}2,1,
3,3,{24}5/2-6[8:1],1,8,7,,,{8}2,8,7b/1b,7/1,
6b/2b,2/6,{16}3,5,3,5,4,5,4,5,{24}4,3,2,1/8,7,6,
5/3,2,1,8/7,6,5,{32}4/1,8,7,6,5/1,4/8,3/7,2/6,{8}1/5,3b/7b,{16}2,1,{8}2,
3/8,{16}2,1,{8}2,3/7,{16}2,1,{8}2,3/6,{16}1,8,
1,8,1,2,3,4,{8}5/6,8/4b,{16}6,5,{8}6,5/1,
{16}3,4,{8}2,5/6,{16}7,8,{8}7h[8:1],{16}2,8,2,8,2,8,
1,1,2,8,{8}3b,{16}3,4,{8}3,6b,{16}6,5,{8}6,
3b,{16}3,4,{8}2,6b,{16}6,5,{8}7,2b,{16}2,1,
{8}2,7b,{16}7,8,{8}7,2b,{16}2,1,{8}3,7b,
{16}7,8,{8}6,{24}1b/7b,6/2,5/3,4,{48},,,,,,,8b/2b,,3/7,,4/6,,{16}5,{48},,,,,,{24}6bx/2bx,7/3,8/4,
{6}5/1h[6:1],3h[6:1],5h[6:1],7h[6:1],{3}8pp4[2:1],
{1},{4},,,{8}4x,
4x,
4x,4xqq8[2:1],,,,,,,,,,,,,7x,
7x,
7x,B7,,5>1[2:1],,6,,6,
,6,,7,,7,{32},,,,E7,B6,B5,E5,
,,,,{8}3h[4:1],{4}4h[8:1],{8}7h[4:1],5h[8:1],,1h[4:1],
{4}3h[8:1],{8}6h[4:1],4h[4:1],,5h[4:1],{4}3h[4:1],
{8}6h[8:1],C,,,,6h[8:3],,,,7/5>2[8:1],
,,,8h[8:3],{16},6,,,{8}5,
4/7<4[8:1],,3,{4}3,{8}1,3/1,
,2/4<7[8:1],,,,1h[8:3],{16},3,,,{8}4,
5/2>5[8:1],,6,{4}6,{8}8,6/8,
,8-4[8:1]/5-2[8:1],,5/8,,1/7-4<5-2[8:3],,7,
{4}1-6[8:1],{8}1,7h[4:1],{24},,,5x,,6,,5,,4x,,3,
,4,,{8}6/2,{16}3,4,{8}1,4/7,{16}6,5,{8}8,7/3,
,4b<7b[8:1]/2b-5b[8:1],,A2f,,8h[8:3],{16}3,3,,,{8}4,
5/1>4[8:1],6,1/7,8,1<5[8:1],2,1/3,
4,7bv4b[8:1]/1bs5b[8:1],,A7f,,6h[8:3],{16}3,3,,,{8}2,
1/5>2[8:1],8,7/5,6,5<1[8:1],4,5/3,
,2-5-8[2:1],,,,,,,,7-3[2:1]/1-5[2:1],
{4},,,{16},,{24}6,
,6,,5,,{8}7h[4:1],{24},,,3,,3,,4,,{8}2h[4:1],
,3,3,2-6b[8:1]/4-8b[8:1],,Cf,{16},,,,,,,,7b/8b,
6b/1b,{8}5b/2b,,7b/4b,{16},5b/2b,,,{8}3b/4b,
{16}6b,5b/6b,,3b,{8}3b/4b,1b/6b,{16}8,7,1,6,2,5,
{8}3,{16}3/4h[8:7],2,{24}1,8,7,6,{12}5,{24}3,2,1,8,7,6,{16}5,{32}3,2,1,8,7,6,
{1}5bs1s5[4:7],
{16},,,,,,,,,,,,,,,,,,,B7/A7/D7/E7/A6/B6/B2/A2/E3/D3/B3/A3/Ch[16:3],
{1},{4},{8},6>5-1>2[8:5],
,,,4>3-7>8b[8:3],
{24},,,,,,,,,,,,,,,,,,1bx,
2x,3x,4xh[4:1],,,,,,{8}5V71[8:1],,5/A2f,{16},A3f,,,{8}A4f,
{16}7,8,7-4b[8:1],8,{8}7,7/1-5[8:1],2,1/6,{24}6,7,8,
{48},,,,,,{16}5,6,5-1b[8:1],6,{8}5,5/3-8[8:1],4,3/6,{24}6,5,4,
{48},,,,,,{16}2,4,3-8b[8:1],4,{8}2,3/5-1[8:1],7,5/2,{24}2,3,4,
{48},,,,,,{16}1,7,8-4b[8:1],7,{8}1,8/2-5[8:1],1,2/6,{24}6,7,8,
{8}1h[8:1],{16}3,4,2,4,{8}3,2/5,{16}6,5,7,5,{8}6,
{16}3,3,4,2,5,1,6,8,7,1,{24}6b,5,4,3,2,1,8,7,6,
{4}5h[4:1],{16}3,4,{8}2h[8:1],{16}1,2,{8}8h[8:1],{16}5,6,4,7,
3,4,2,5,8,7,1,6,5,7,4,3,2,1,8/4,5,
{4}6/2h[4:1],{8}6x-1[8:1],{16}5,6,,,{8}4-8[8:1],{16},3,{8}4,
2,2-5[8:1],{16},1,{8}2,8-4[8:1],7/6,5,3,
{4}1,{16}6,5,{8}7h[8:1],{16}8,7,{8}1h[8:1],{16}4,3,5,2,
6,5,7,4,1,2,8,3,{8}4/7,6/5,4/3,2/1,
7/8h[6:1],{24}E7,B6,B5,{8}E5,{16}1,8,2,8,1,8,1-6[8:1],7,2,8,
{4}1bx,{24}E6/E4,E7/E3,E8/E2,E1f,,,,,,{8}2/8,2/8,3/7,
3/7,6-2[8:1],6,7-3[8:1],7,8-4[8:1],8,1,
1,2,{16}2,3,2,4,2,5,{8}1v4[8:1]/6v8[8:1],,,,3-7[8:1],
3,2-6[8:1],2,1-5[8:1],1,8,
8,7,{16}7,6,7,5,7,4,{8}8v5[8:1]/3v1[8:1],,,,,2,
{24}1/2b,3,4,{8}5,7,7,{24}7b/8,6,5,
{8}4,2/1,1/2,{24}1b/2b,3,4,{8}5,7/8,8/7,{24}8b/7b,6,5,
{8}2/4h[8:1],{16}3>7[8:1],4,3,4,{32}3b,E3,E2,E1,{8}E8f,{16}5<1[8:1],4,5,4,{32}5b,E6,E7,E8,
{8}E1f,4,4,2/5,5/2,{16}7-4[8:1],8,6,1,{8}7/8,
{4}E2/B1/B2f,{8}3x-8[8:1],{16}4,3,,,{8}5-1[8:1],{16},6,{8}5,
8,7-4[8:1],{16},8,{8}7,1-5[8:1],2/3,4,6,
8>6[4:1],,,,,7/1-5[8:1],,1/7-4[8:1],
6,7/3,3,2,2/1,{24}8,7,6,2/5,3,4,5h[4:1]/Cf,{48},,,,,,,,,,{16}6,
4,5,3,4,2,1,3,8,2,7,1,6,8,
{8}5h[8:1],{16}3,5,4,6,5,7,8,6,1,7,2,8,3,1,
{8}4bh[8:1],{24}8b,3,2bx,1,8bx,7,6bx/3b,2,1bx,8,7bx,6,5bx/1b,4,3,2,1,8,{96}7x/3bh,,,6,,,{32}5,4,
3,2,1,8bx/2,7bx/3,4/6bx,{16}5bxh[16:9],,,,,{8}1h[4:1],{32},,,,,,,,1b/5b,2/6,3/7,4/8,
{8}1/5h[8:1],7,7,7h[4:1],,6,{4}7/5h[4:1],
{16}6,,,5/4,,,{8}4/2,{4}3/1h[6:1],{12}4b/2b,5/3,6/4,
7/5,8/6h[4:1],,,{6}7h[6:1],8h[6:1],1h[6:1],2h[6:1],
{16}3b,4,5,6,{24}1b,2,3,4/7,6,5,{32}4/1,2,3,4,5,6,7,8,{4}4-7b[8:1]/1-4b[8:1],
{8}4b/1b,E7/E3/C/B2f/B6f,{24},,,,,,7b/8b,6/1,2/5,4h[4:1]/3h[8:5],,,,,,,5,6,
7h[8:5],,,,,,,2,1,8h[4:1],,,,,,,6/1,5/2,{4}3/4h[4:1],
{24},5/3,6/2,7/1,{6}8h[24:11],{24},,,,,,,,,,1b/2b-5[8:13],3b/8b,4b/7b>8-5b[24:37],5b/6b,{1},{4},,,{16},,,{48},{8}B1/A1/B3/A3/B5/A5/B7/A7/Ch[8:1],
E
