&title=Dear
&artist=GigaReol
&first=0.59
&des=Aza
&clock_count=4
&lv_5=13+
&des_5=
&inote_5=(132)
{4}2b/7bV53-8[2:1],1h[2:1],,,{1}3v4<2[2:1]/7h[4:3],{4}4-8[1:1],3,3,3,3,{16}3,,,6h[8:1]/1hx[8:1],,,,E2,E5,E3,E6,E4,
{16}7bx^6v4[4:1],,,4,{4},{16}3>7[4:1],,,5,{4}3,{8}6,5,4,{16}3-6[8:1],7,{8},3b,,7/8,{16}1>4[8:1]/6,,,5,{8}1,6,{16}5-2[8:1]/7,,,8,{8}5,1,2/8,3/7,{16}4/6,,5^6-8[8:1],3,,,5b,,,,2,1-6[8:1],2x,3x,4x,,,,4,5-8[8:1],4x,3x,2x,,,,1,7,{16}1x>4[4:1],,,5-8b[8:1],{8},,,5x,6,5,4-2[8:1],3,8V64[4:1],7,{16}1,,,2,,,3,,{8}4,3/5,5,4/6,{2}3-8b[8:1]/5-3b[8:1],
{8}1hb[8:1]/2-6[8:1],,8,8,7-3[8:1]/8h[8:1],,1,1,1h[8:1]/2-6[8:1],,8,8,{16}8x,7/5,,,1x,2/4,,,{8}7-4[8:1]/8h[8:1],,1,1,2-5[8:1]/1h[8:1],,8,8,7-4[8:1]/8h[8:1],,1,1,{16}1x,2/5,,,8x,4/7,,,{8}3/5h[4:1],2,1h[8:1],{16}6,8,,7/1,,,{8}8x,2,1,3<1[4:1]/8,,Cf,,5,6qq1[4:3],2qq5b[8:5],{1}6bx,{16}4/8,,{16}6,2-7b[12:1],3x/7x,,,C,,,{8}6,2/5-7[8:1],4x,
{8}3b-8[8:1]/5,,3/4V61[4:1],,1/4,{16}2,3hx[16:3],{8},2-5[8:1],8-4[8:1],2-6-1b[4:1],8,2b,,{16}5,6>2[8:1],7h[4:1],,,6x,,,4,5V31[8:1],6h[4:1],,,5,,,8,7,6h[8:1],,5,6,4,,3/5,3/5,,4/6qq7[16:3],,,,,{8}Cf,,1,2/8-6[8:1],,2-5[8:1]/8,,2/5,{16}6,7hx[16:3],{8},6,5,4v6-8[4:1],3,2b,,1-6[8:1],2,1x/3,2-4[8:1],,2/5,6,{16}7-4[8:1],5,,1b,{4},{8}2,3,4/5,3-8[8:1]/7-3b[8:1],,3-8-5b[2:1]/7-1-5[2:1],,3b/7b,
{1},{8}3-1[8:1],2,4-7[8:1],5,3h[2:1],,{4}8-4[8:1],8b,{8}1-3[8:1],2,7-4[8:1],6,{4}1h[4:1],3hb[4:1],5hb[4:1],1b<6[8:1],1/5-1b[8:1],{32},B5,Cf,B1,{16},8x,,,{8}2/7-4[8:1],3/5,{16}7,1,{8},5hx[4:1],2-5[8:1],3,6,{16}7,8hx[16:3],,,E5f/B5/B6,,{8},1/2,3/8V25[4:1],{16},4,8,,3x,,{2}2x-5b[8:1]*-6[8:1],{8}7/8,1/6,2/5,{16}3,4h[16:3],,,8b,,1/5,2b/6b,,,{8}Cf,,,{16}7,8,6,,2,1,3,,4x/5x,,{16}3,6,4,5,3,5,3,6,{2}4b-1[8:1],
{8}7/8h[4:1],5,7h[4:1],1,2,{16}1,2x/8x,{8},3,2/6h[8:1],4,3h[8:1]/7,5,{2}2bv5[8:1]/6bv1[8:1],{4}8<4p3[4:5]/4,E3,E2,E1,E8,E7,C,{8},5x,
{8}6b-1[8:1]/4,,6/5V38[4:1],,8/5,{16}7,6hx[16:3],{8},7-4[8:1],1-5[8:1],7-3-8b[4:1],1,7b,,{16}4,3<7[8:1],2h[4:1],,,3x,,,5,4V68[8:1],3h[4:1],,,4,,,1,2,3h[8:1],,4,3,5,,6/4,6/4,,5/3pp2[16:3],,,,,{8}Cf,,8,7/1-3[8:1],,7-4[8:1]/1,,7/4,{16}3,2hx[16:3],{8},3,4,5v3-1[4:1],6,7b,,8-3[8:1],7,8x/6,7-5[8:1],,7/4,3,{16}2-5[8:1],4,,8b,{4},{8}7,6,5/4,6/2h[2:1],,4<2[8:7],3,4,
{4}1b,,,{8},3,2/4,1,8,{16}7-4[8:1],5,7,,1x,,{8},6,7/5,8,1,{16}2-5[8:1],4,2,,8x,,{8},{8}7,{16}6,5,6,,1/8,,2/5,,3,4,3,,2/5,,1/8,,{4}4/7b<1[2:1],{8},E8,E7,E6,E5,,{16}2>8[2:1]/5,Cf,{8},,E2,E3,E4,E5,,{8}1/2>5[8:1],{16},8,2x-6[8:1],,,8,2x,7,{8},,8,1/7,2/6,3/5,2/6,4/8,3/7,1-6[8:1]/5-2[8:1],3/7,
{16}1bV74b[2:1]/5bV38b[2:1],Cf,{8},{4},,,1>8[2:1],,,2-6[8:1],{1}2b<4pp8b[4:5],{16}3,,,2,,,1,,{4}1h[8:1],{8}1-5[8:1]/8,2,1b/8-4[8:1],7,1-5[8:1]/8,2,1/8-4[8:1],7,1-5[8:1]/8,2,1/8-4[8:1],7,1-5[8:1]/8,2,1/8,7x,1/8-4[8:1],2/7,1-5[8:1]/8b,2,1/8-4[8:1],7,1/8,2,1/8,,3/4,2/5,{16}3,4,,2/5,,4h[8:1]/7h[8:1],,,1h[8:1]/2h[8:1],,,5h[8:1]/6h[8:1],,,{8}7h[8:1]/8,6h[8:1],5h[8:1],{4}4h[8:11],,3h[8:1],3h[8:1],3h[8:1],3h[8:1],{8}2/3,1/4,2/3,1/4h[4:1],,{32}3x,2x,1x,8x,7x-3b[8:1],6x,5x,4x,3x,2x,1x,8x,
{16},Cf,8,1p5[8:1],{8}2h[4:1],,,{16}1,2,3h[8:1],,4,3,4,,3/5,3/5,,4/6qq7[16:3],,,,,{8}Cf,,1,2/8-6[8:1],,2-5b[8:1]/8,,2/5,{16}6,7hx[16:3],{8},6,5,4v6<8b[4:1],3,2b,,1-6[8:1],2,1x/3,2,{16}2,4,3,5,4,6,5h[8:1],,7-4b[8:1]*-3b[8:1],4,8,,7b-1-6-2-5[8:5],,{8},,,,5<4b[4:1],,{24}E6,E7,E8,E1,E2,E3,
{1}E4f,
