&title=白金ディスコ
&artist=井口裕香
&first=0.300
&des=はっぴ二
&wholebpm=117.000
&lv_5=12
&des_5=
&inote_5=(117)
{1},
{4}3/4-6[8:1],,3/4-7[8:1],,3/4-8[8:1],,3/4-1[8:1],,
{8}3h[8:1]/4,6,3h[8:1]/4,7,3h[8:1]/4,8,3h[8:1]/4,1,
{16}3h[8:1]/4,,1,1,3h[8:1],,7,7,3h[8:1],,1-5[8:1],,4,,8,,
{8}7,6,54,2,4h[8:1],1,3h[8:1],1,
2h[8:1],3h[8:1],4,5pp4[4:1],5,1b,1b,,
{8}3/4,2,14,5,
{8}6/5,7,85,4,
{16}2/5,,3,4,2h[8:1],,8,,7h[4:1],,5,,4,,3,,
{8}2/6,3,4/5,7,5h[8:1],8,6h[8:1],8,
7h[8:1],6h[8:1],5,4qq5[4:1],4,8b,8b,,
{8}6/5,7,8/5,4,
{8}3/4,2,1/4,5,
{16}6,7,8,1,2,3,4,5,6/3,,8/1,,2/7,,,,
{16}4^6[8:1]/2,,,,4/6,,,,5^3[8:1]/7,,,,5/3,,,,
4^6[8:1]/2,,,,4/6,,,,5^3[8:1]/7,,,,5/3,,,,
2-6[8:1]/6,,,,7-4[8:1]/2,,,,3-8[8:1]/7,,,,3/5,,,,
2/5,,3,,4,,56,,7,,8,1,2,,4,,
{16}5-8[8:1]/3,,,,7/5,,,,4-1[8:1]/6,,,,2/4,,,,
1^6[8:1]/3,,,,1/6,,,,8^3[8:1]/5,,,,8/3,,,,
1-4[8:1]/4,,,,1/8-5[8:1],,,,8/4,,3,,2/5,,1,,
6,8,6,7,6,5,6,4,6,,2,1,8,,36,,
{8}1-3[8:1],8,7-5[8:1],8,1-3[8:1],2,7-5[8:1],6,
3-1[8:1],4,6-8[8:1],5,4-2[8:1],5,7,
6,1>5[8:1]/5p1[8:1],15,,,6^3[8:1]/8,8,,7,6q3[8:1]/2^7[8:1],62,,,
{16}45,,34,,2,,
{8}1h/8h,7h/2h,6,5-1[8:1],2,3-8[8:1],4,7-4[8:1],6,
2-6[8:1],1,8-5[8:1],7,3-7[8:1],4,7,6,
{8}6^1[8:1]/2^5[8:1],3/7,6b/2b,,3^8[8:1]/7^4[8:1],6/2,3b/7b,,
{16}1b-6[8:1]/8,,,,1b-4[8:1]/7,,,,1bw5[8:1]/3,,,,1b,,,,
{16}6,5,7,4,8,3,1,2,8,1,7,8,6,1,5,2,
3b/4b,,7b/5b,,1b/8b,,2b/7b,,
{8}6b/3b>6[4:1],,3/6,5,4pp3[4:1],2,4/3,2,
{8}1>6[4:1],,1/6,7,8pp7[4:1],5,4/8,3,2q3[4:1],,5,6,
{8}8<5[8:1],,8/4-8[8:1],3,2-5[8:1]/4,,2/8,7,
{16}6,4,6,3,6,2,6,1,6,8,6,,
{8}7/5,4/3,1pp1[4:1],8,1/7,6,
{8}5pp4[4:1],,5/1,2,3p2[4:1],5,6,7,8<3[4:1],,3,2,
{8}1-5[8:1],,1/6^3[8:1],7,8-4[8:1]/6,,8/3,2,
{16}1,5,2,6,3,7,4,8,
{32}5,6,7,8,1,2,3,4,5/1,,,,,,,,
{8}5^2[8:1]/6^1[8:1],1/2,5/6,,
{8}4^7[8:1]/3^8[8:1],8/7,4/3,,
{8}3h[8:1],4h[8:1],5h[8:1],6p3[4:1],3,2b,2b,,
{8}8^3[8:1]/7^4[8:1],4/3,8/7,,
{8}1^6[8:1]/2^5[8:1],5/6,1/2,,
{16}7h[8:1],,8,7,1,,2p7[4:1],,7,,6b,,6b,,,,
{8}5^8[8:1]/1^4[8:1],4/8,5/1,,
{8}4^1[8:1]/8^5[8:1],5/1,4/8,,
{8}6h[8:1],7h[8:1],5h[8:1],8h[8:1],4h[8:1],1h[8:1],3h[8:1],2,
{8}7^2[8:1]/1-5[8:1],34,7b/1b,,
{8}2^7[8:1]/8-4[8:1],56,2b/8b,,
{8}5/1,2/6,7-2[8:1]/3-6[8:1],,7b/3b,,,,
{16}4,,3h[8:1],,2b,,8,,7,,6h[8:1],,5b,,4,,3,,2,,1-4[8:1]/8-5[8:1],,,,1b/8b,
