&title=キミとボクへの葬送歌
&artist=ROKINA
&first=0.061
&des=COMET
&lv_5=14+
&des_5=COMET
&inote_5=
(220){4},,,,,,,,,,,,,,,,,,,,{1}Ch[1:2],
,B8/B1/B2/B7,
,6xh[2:7],
,3xh[2:3],
,1xh[1:7]/8xh[1:1],
,B7/E7/B6,
B6/E6/B5,
Cfh[1:1],
,5xh[1:1],
{4},,,{16},,{32}1bx/5bx,6x/2x,7x/3x,8x/4x,
{4}1x-6[8:1]/5x-2[8:1],1/5-1[8:1],5/3-7[8:1],3/8w4[8:1],
8,2v5[8:1]/6v1[8:1],6/2,4x/8xp4[8:1],
8b/1q5[8:1],1b/7-4[8:1],7b/2-5[8:1],2b/6-4[8:1],
6b/3-5[8:1],3b/6,{16}4x/5x,3,2,1,8,7,6,5,
{6}4b-8[12:1],{12}4,5-1[12:1],,5,{6}3-8[12:1],{12}3,6-1[12:1],,6,
{6}2x-6[12:1],{12}2x,1x-5[12:1],,1,{6}8x-4[12:1],{12}8,7x-3[12:1],,7x,
{6}6x-2[12:1],{12}6x,5x-1[12:1],,5x,{6}4x-8[12:1],{12}4x,3x-7[12:1],,3x,
{4}1xw5[12:1],1b,{16}3/7b,4,5,6,7,8,1,2,
{4}7b/3<6[8:1],{8}3/8,8-4[8:1],,8,{4}3,
{8}8/1-5-2-4[8:3],1,1/8-6[8:1],8,{2}8b,
{8}5qq1>5[8:5],6/4,{4}5b,{8}5,6,7,8h[8:5],
,,,,,,1-5[8:1],2,
{4}1b/3,{8}4-8[8:1],3/5,{4}4b,{16}1/5b,2,3,4,
{4}5/1b,{16}5/1b,4,3,2,1/5b,8,7,6,{4}5/1b,
{8}5/2,5,5/7,5,4/3,4,4/6,4,
{16}4,3,2,1,8,7,6,5,{32}4,3,2,1,8,7,6,5,4,3,2,1,8,7,6,5,
{4}4bx-8[8:1],{8}4/5,5V74[4:1],,5,{4}2,
{8}5-7v4[4:1]`1-3v8b[4:1],2/6,{4}1/5,,6b/1b-5[8:1],
{8}1/8-4[8:1],8,8/2-5[8:1],2,2/7V51>8[4:3]*V52>8[4:3],7,{4}7,
{8},,,,,,8/1,7/2,
1/6,{24}6/1,2,3,4,5,6,7,8,1,{4}2/6b,{8}6/2,3/7,
8/4,{24}8/4,7,6,5,4,3,2,1,8,{8}7/2bx-5[8:1],7-4[8:1],2b,7b,
3,3,3/5,3/5,6,6,3/5,3/5,
{16}4,5,4,5,3,6,3,6,4,5,3,6,4,5,3,6,
{4}4bh[8:3],{8}7,7h[8:7],,,,,,,{4}6h[4:1],
5h[4:1],4h[4:1],
{8}5h[2:1],,,3,{2}3>8[4:1],
{4},7/1h[4:1],2h[4:1],3h[4:1],
{8}4h[2:1],,,5,{2}5qq3-1[2:1],
{4},7h[4:1],6h[4:1],5h[4:1],
{8}4h[2:1],,,3,{2}3>5V71[1:1],
{4},1V35b[4:1],,,5/3,
{8}5,6/4,,6,{4}7h[1:1]/5V38-3-5[4:3],
,,,,4/6,
{8}4,3/5,,3,{4}2h[1:1]/4V61V75[4:3],
{8},,,,,,,,6/2,
2,6,3,6/3,6,{4}6/2-8[8:1],
2/6-4[8:1],6/3-7[8:1],3/1w5[8:1],{16}1b,Cf,,,{8}3,
3,6/2,6/2,5/1,5/1,8/4,8/4,
{16}8,4,1,5,2,6,3,7,4,7,5,7,5,7,4,7,
{4}4b,{8}6/3,{16}4,5,{8}4,6/3,4,3/5,
{16}4,4,4,4,{4}4b,{8}5/3,5/2,{4}1/5,
4b/2b,{16}3,3,3,3,{8}3,4,2,{16}2,3,
{8}4,3/5,2/6,1/7,{16}1b,8,7,6,{4}5/1b,
2b/4b,{16}3,3,3,3,{8}3,2,{24}2b,3,4,5,,,{8}7,
{24}7b,6,5,{8}4,1,{16}1,2,3,4,{8}1/5,3/7,
{16}2b,1,2,1,{8}2,{16}3b,5,3,5,{8}3,{16}4b,6,{8}4,
7/3<6[8:1],3,3/8-4[8:1],8,{2}8b/4bxw8[8:1],
6xh[8:5]/2xh[24:11],{24}3x,4xh[48:13],,,7x,8xh[24:19],,,,5x,6xh[24:5],{4},{16},,,{96},{32}E6,
B5,E5,{2}4xh[4:5],
{4}8-3[8:1],8-6[8:1],8-2[8:1],8-6-2-5-1b[8:7],
8b,,,Cf,
{2}2h[4:1]/8h[16:5],{12}1,1,1,8,8,8,
{16}1b,2,3,4,8/5h,1,2,3,{4}4xh[4:1],8b`B8f,
{16}1b,2,3,4,{8}1/5,{16}1b,8,7,6,{8}5/1,{16}1b,2,3,4,
{8}1/5,{16}1b,8,7,6,{8}5/1,{16}5b/1b-5[8:1],2/6,7/3,8/4,{4}5/1w5[8:1],
{1}1qq7<5-2b[4:13]*pp3<5-8b[4:13],
{4},,,,,,,,,,,,4b/2h[1:2],
B4,B5,B6,
B7,B8,B1,C,
7h[4:7],B5,B4,B3,
B2,B1,B8,C,
{12}3,4,3,6,5,6,3,4,3,6,5,6,
2,1,2,7,8,7,8,7,6,5,4/3,2,
1,8,7,6,1,8,7,2,1,8,3,2,
1,4,3,2,5,4,3,6,5,4,7,6,
5/4bx,3,2,1/8,7,6,5x/4bx,3,2,1/8,7,6,
5/4bx,3,2,1/5bx,4,3,2/6bx,5,4,3/7bx,6,5,
8/4,7,6,5/4,3,2,1/8,7,6,5/4,3,2,
{24}1b,8,7,6,5,4,3,2,1,8,7,6,5,4,3,2,1-5[0.3636##0.0909],8,7,6,5,4,3,2,
{1}1b-5v6-1[16:51]*-5v4-1[16:51],
,,,{8}4/3h[1:1],
,,B4,,,{4}B5,
{8}6xh[4:3],,,B5,,,{4}B4,
5h[8:7]/4h[8:1],3h[8:1],2h[8:1],{16}1h[32:5],{32},,,,2x/6x,3x/7x,
{16}4xh[4:1]/8xh[4:1],{32},,,,,,,,7x/3x,6x/2x,{8}5xh[4:1]/1xh[4:1],{32},,,,,,2x/6x,3x/7x,{4}8xv5[16:1]/4xv1[16:1],
8b/4b,{32}1,2,3,4,{8}1bx,{32},,,,8,7,6,5,{4}8bx,
{8}6/1<8-5-3[8:3],1,1/6-2[8:1],6,{4}6b,{16}4xh[4:1],2x,1x,8x,
{8}7x-5[8:1],1-5[8:1],7-4[8:1],1-4[8:1],7-3[8:1],1-3>5[8:5],,,,,,,,,6-1[8:1]/4-1[8:1],
7/3,
{4}4/6,{8}2-5[8:1]/8-5[8:1],3/7,{4}8/2,{16}4/8b,3,2,1,
{4}8/4b,{16}8/4b,1,2,3,4/8b,5,6,7,{4}8/4b,
5V37[4:1],{8}5/8,8V25b[4:1],,8b,{16},,,,4x,
8,4x,7,4,6,4,5,{32}4,3,2,1,8,7,6,5,4,3,2,1,8,7,6,5,
{4}4bx-8[8:1],{8}4/5,5V74[4:1],,5,{4}2,
{8}5-7v8-2[8:3]`1-3v4-6b[8:3],1/5,{4}1/5,{16},,,,2bx-6[8:1]/6bx-2[8:1],1/5,8/4,7/3,
{2}6-4[16:1]/2-4[16:1],{8}5z1>2-4[4:3]/3s7<6-4[4:3],5/3,{4}5/3,
{8},,,,,,1/8,2/7,
8/3,{24}3/8,7,6,5,4,3,2,1,8,{4}7/3b,{8}3/7,6/2,
1/5,{24}1/5,2,3,4,5,6,7,8,1,{8}2/7bx-5[8:1],2-4[6:1],7b,2b,
{24}6bx,7,8,1,2,3,4,5,6,7,8,1,2,3,4,5,6,7,8,1,2,3,4,5,
{32}6/1b,2,3,4,5,6,7,8,1,2,3,4,5,6,7,8,1/5h,2,3,4,5,6,7,8,5h/1-5[8:1],2,3,4,5,6,7,8,
{1}1bv4V28>5b[2:7]/5bxv8V64<1[2:7],
{4},,,,,,,,,,,,6/3h[2:1],
E6/B5,6h[2:1],B4/E4,
3h[2:1],E6f/B5f,6h[2:1],B4f/E4f,
3h[2:1],B4/E4,6h[2:1],E6/B5,
3h[2:1],B4f/E4f,6h[2:1],E6f/B5f,
3h[1:1],{8}5,5,{4}5,B5f,
6h[1:1],{8}4,4,{4}4,B4f,
3h[2:1],Cf,6h[2:1],Cf,
3h[2:1],Cf,6h[2:1],Cf,
{8}4,4,3/5,5/3,5,5,6/4,6/4,
{16}5,6,5,6,4,7,4,7,3,8,3,8,{4}2b,
{8}2/8,2-5[8:1]/8-5[8:1],2/8,2b/8b,,,6/4,6-1[8:1]/4-1[8:1],
6/4,6b/4b,{16},,,,1,2,3,4,1-5[16:1],8,7,6,
{1}1b-6-3-7-5[8:33],
,,,1b-5[8:1],
E
