&title=Everything Will Be One
&artist=void(Mournfinale)
&first=0.07999999
&lv_5=14+
&des_5=Pagasus > Glandoor
&inote_5=
(170){4},{1},{4},,,{1}4-1-6[1:1],
{2}6-2-8[1:1],E4,
{1}8-4-6[1:1],
{2}C,{32}4h[2:3]/A5,E6,A6,E7,A7,E8,A8,E1,A1,E2,A2,E3,A3,E4,B3,C,
{1}B7,
{2}C,6x/4x,
{4}7-4-1-6[1:1],{2},{4}C,
{1}6b-3-8-5b[2:1],
{8}4xp6[2:1]/6p4[2:1],4/6x,{4},,,{8}5xV73[2:1]/3V15[2:1],
3x/5,{4},,,{8}4x-1-6[2:1]/6v4[8:3],
4/6x,{4},{16},,,Ch[16:5],{4},B7/B6/B5/B4/B3/B2/B1/B8/E5f/E1f,
{2},{4}C,
{8}1qq7[2:1]/7xq4[2:1],7/1x,{4},,,{8}2x>5[2:1]/8q2[2:1],
2/8x,{4},,,{8}1z5[2:1]/7xV51[2:1],
7/1x,{4},,{8},3,
{4}3-7[4:1],7V15[2:1],,5,
B7/B6/B5/B4/B3/B2/B1/B8/Ch[4:3],{2},{16}1,2,3,4,
{8}5h[8:3],{4},{8}6b,{4},{16}8,1,8,1,
8b,{8},{16}1/2b,{8},8/7b,{16},1/3b,{8},8/6b,4b/5b,
{16}1,2,3,4,8,1,2,3,{24}7,8,1,2,3,4,{16}5,8,7,6,
{8}1b/5h[4:1],{4},{8}7b/3h[4:1],{4},{16}6,6,3,3,
{8}5b/4h[4:1],{4},{8}1b/8h[4:1],{4},4/8,
{16}4,8,3,7,2,6,1,5,2,6,3,7,4,8,4,8,
4,5,6,7/4,5,6,7/1,2,3,4/1,2,3,{24}4/1,2,3,4,5,6,
{4}7x/8bh[1:1],{24}B1,B2,E3,3x,{16},,,{48},{8}4h[4:1],{4},{16}5q3[8:1],
{8},{16}5,,6,{8},{2}Ch[2:1],
{4}2h[4:1],{24}B8,B7,E7,6xh[8:3],{3},{8}4,{16}3,5,
{8}3,{16}6,4,{8}6,{16}3,5,{8}4,{16}7,5,{4}6,
{16}4,6h,5,7h,6,8h,5,7h,4,6h,3,5h,2,4h,1,3h,
{12}1,2,3,{48}4/8,{24},{48}1,{24},{16}2,3,4/7,8,1,2,{24}3/6,7,8,1,2,3,
{4}4h[8:11],{8}3,3,2,2,1,1,
{4}8bh[8:3],{2},{4}8bw4b[8:1]/1bw5b[8:1],
{2}8/1,{16}A1,E1,B8,B7,{24}E7,D2,E2,C,E6,D6,
A2,E3,B3,B4,E5,A5,{4}4x-7[4:1],7xp2[4:1],2xw6[8:1],
{2}A2f,7x<4-8[2:1],
8x>3-7<4b[4:3],{4}C,4xw8[8:1],
{8}A4f,{4},{32}1x,8x/2x,3x/7x,6x/4x,{2}5xs1[4:1],
{4}3x<7[4:1],7xV15[4:1],5xV31[4:1],1xs5[4:1],
7xh[32:15],{2},{16}A4,E5,B5,B6,
{24}E7,D4,E4,C,E8,D8,A3,E3,B2,B1,E1,A8,{2}1x-5[8:1],
{4}4/6pp2[2:1],4,4,4,
7/4qq1[2:1],7,7,7,
3/8qq5[2:1],3,3,{8}3,3,
{4}6/3pp8[2:1],6,6,6,
{16}3,3,{8}5,{16}3,3,{8}6,{16}3,3,{8}7,{16}3,3,{8}8,
1v4[2:1]/7v4[2:1],{4},{8}Cf,{2},{16}1/7h[8:3],
{8},{16}1,{8}1,1,8/2h[2:1],8,8,8,
{16}8,1,7,1,7,1,7,1,{24}7,1,7,1,7,1,7,1,7,1,7,1,
{1}8b-5>4-1b[2:3],
Ch[4:3],
{4}1/8-4[8:1],{8}8>3[8:1],{16}3,3,{8}8<5[8:1],{16}4,4,{8}8>1-3[8:1],{16}3,3,
{8}8<7-5[8:1],{16}4,4,{4}8-4b[8:1],8-5[8:1]/3-8[8:1],3x/8x,
2/4V68[8:1],{24}4/8b,1,2,3>7[6:1],{16},,,{48},{24}3/7b,6,5,{4}4V68[8:1],
{24}4/8b,1,2,3>7[8:1],{16},,,{48},{24}3/7b,6,5,{4}4-8[8:1],4/8b,
8x/1-5[8:1],{8}1<6[8:1],{16}6,6,{8}1>4[8:1],{16}5,5,{8}1<8-6[8:1],{16}6,6,
{8}1>2-4[8:1],{16}5,5,{4}1-5b[8:1],1-4[8:1]/6-1[8:1],6x/1x,
{16}8,3,8,2,{24}8b,7,6,5,{12},{24}1b,2,3,4,{12},{24}1b,8,7,6,{12},{24}2b,
3,4,5,{12},{8}7/5,6b-1[8:1],{4},2b-7[8:1]*-5[8:1],
2,8/1-5[8:1],{8}1>4[8:1],{16}6,6,{8}1-6[8:1],{16}5,5,
{8}1-4[8:1],{16}7,7,{8}1V35[8:1],{16}5,5,{4}1<6[8:1],1-5[8:1]/4>1[8:1],
4x/1x,{24}8bx,7/1,2/6,3bv1[12:1]/5b-1[12:1],{3},{24}8bx/2bx,7/3,6/4,5b<8b[12:1],{3},{24}1b,
2,3,4,{12},{24}7b,6,5,4,{12},{24}1b/2b,3/8,7/4,5/6,{12},{4}1/8-4[8:1],
{8}8<5[8:1],{16}3,3,{8}8-3[8:1],{16}4,4,{8}8-5[8:1],{16}2,2,
{8}8V64[8:1],{16}4,4,{8}8>3[8:1],{16}3,3,{4}8-4[8:1],{8}8x/4,{24}3,2,1,
{4}8bxs4b[8:1],8xh[24:5],{24}1,2,3,4,{12},{24}1,2,3,4,5,6,
{8}7bV13b[8:3],{4},{8}3b-5[4:1],,5b-7b[8:1],{16},7b,{8},{4}1-5[8:1],
{8}1/6V82[8:1],6,{4}6,{16}3,6,4,5,
{4}4V28[8:1],{24}4/8,7,6,5,{12}4-8[8:1],{4},{8},{16}7,1,
7b-4-1[4:1],{8},{16}4b,{8},8b,{16}3b-8-5b[4:1],{8},{16}8b,{8},4b,
{16}7,3,5,1,8,4,6,2,{24}5,4,3,2,1,8,{16}7<3b[8:1],3,7,3,
{24}7,3,2,1-5b[8:1],8,7,{8}6,1b,{4},{16}2>6b[8:1],6,2,6,
{24}2,6,7,8-4b[8:1],1,2,{8}3,8b,{4},{24}7/8,6,5,4,3,2,
{16}1x,8x,1x,8x,4,5,4,5,2,3,2,3,6,7,6,7,
{12}1/4x,5/2x,3/6x,7/4x,3/6x,5/2x,{16}1/4x,2,3,4,{24}5/1,2,3,4,5,6,
{6}7/3bxh[1:1],5x,{24},{16}E6,B6,B7,{8},{16}C,{8},B6/E6,
{16}C,{8},{16}B3/E4,{8},E5,{2}5xh[2:1],
{4}1>4[8:1],{16}1,7,{8}7,3,{16}6,4,{8}5,{16}4,3,
{8}5,{16}2,4,{8}3,{16}6,5,{8}7,{16}1-5[8:1],8,{8}8,{16}1,7,
{4}7h[16:3],{12}7/3,6,5,4/8,7,6,5/1,8,7,
{16}6/2,3,4,5,6/2,7,8,1,{24}2/7,6,5,4,3,2,1/5,4,3,2,1,8,
{16}7,5,5,3,3,6,6,3,5,3x,4,5,2x/6,3,4,1x/5,
2,3,{8}4x-8-6[2:1]/5x-1-3[2:1],{4},,,6x/Ch[1:4],
{16}B4,{8},{16}B6,{8},B3/E4,{16},E5,{4},{8}B8/E8,
{16},E2,{8},{24}A1,E1,B8,B7,E7,A6,E6,B5,B4,E4,{12}A3,
{8},4,{24},5h[6:1],{3},4h[6:1],
{8},4,{24},5h[6:1],{4},{24},{8}4h[6:1],{4},{8}2,
E7/B6,{16}B2,B3,,5,,B4/B3,,B7,{8}B8,{16}3h,4h,
{8}5h,C,{16}B2/E3,E4,,7,,E5,,B7,{4}B8/E8,
{16}4,6,4,6,4,7,5,7,5,8,6,8,6,8,5,8,
4,3,2,1,8/4,7,6,5,4,8,4,8h[4:1],{4}4h[4:1],
{8}8bq8b[2:1],4bq4b[8:3],{4},,,{8}6b/2b-4-8b[8:3],
6b/2b,,6h[4:1],{4},{8},{24}B1,B2,E3,
{8}3bx/5b,{16}3>8[8:1],5,2,6,3,5,{8},{16}7<4[8:1],1,6,2,7,1,
{8}1b,5s1[8:3]/1v4[8:3],,5/1,{4},{8},3V57[2:1],
5h[4:1],{4},{8}7p2[4:1],{4},8,
6h[4:1],{12}3,2,1,8,7,6,{48}5,{24},{48}4,{24},{16}3,2,
1,5,1,5,1,4,2,5,3,6,4,8,6,7,5,6xh[8:1],
4,5,6,7,8/4,5/1,6/2,7/3,4,8,4,8,{24}4,8,4,8,4,8,
{64}4,Ch[1:1],{4},,,{16},,,{32},{1}4bh[1:1],
{24}1-5[8:1],2,3,4,{12},{8}1,3-7[8:1],{4}2/7>2[8:1],{24}3x,4,5,6,{12},{16}1,
1bh[8:1],,6,{8}6bh[8:1],{16}3,3bh[8:1],6b,6,{8},{24}1h,2h,3h,8h,7h,6h,
{8}5-1[8:1],1-6[8:1],{4}5,{16}3,3bh[8:1],{8},{24}8h,7h,6h,1h,2h,3h,
{8}4h,{16}6,4,5,3,{8}4h[8:1],{16},5,3,6,{24}4h,3h,2h,5h,4h,3h,
{8}2-6[8:1],1/6xqq4[8:1],{4}2,{16}5,5bh[8:1],{8},{24}8h,7h,6h,8h,7h,6h,
{8}5-1[8:1],6/1b>3[8:1],5,{24}B2,B3,E4,{4}4bxh[8:3],{24}1h,2h,{12}3h,{24}5h,6h,
{12}7/3,7/3,7/3,7/3,{24},7b/1b,6/2,5/3,{4}4V28[8:1],{24}4bx/8>4[8:1],7,6,5,{12},{24}4/8bx,
5,6,7>3[8:1],{16},,,{48},{24}7/3b,4,5,6,7,{6},{24}8b,7,6,4/5,3,2,
1,8,1,8,1,8,{8}1,8bV24[8:1],4v1[8:1]/6v1[8:1],8x,{4}6x,
{24}8b/2b,7/3,6/4,5V71b[8:1],{16},,,{48},{24}1b/5,2,3,{4}4V28b[8:1],{24}4/8b,7,6,5,{12},{16}1,
7,2,4,3,6,2,7,1,4,2,5,8,7,4,2,
3,6,2,7,3,6,2,7,{24}1,2,3,8,7,6,2,3,4,7,6,5,
{16}1,1,8,8,7,7,6,6,5,5,4,4,5,4,5,3,
6,4,6,3,{24}8,7,6,5,4,3,1,8,7,6,5,4,8,1,2,3/7h,4/8h,5/1h,
{1}2-5-8[4:5]/6b-4-1-6[4:5],
