&title=キアロスクーロ
&artist=toe
&first=-0.7
&des=Shengwxnw vs differ
&des_5=Shengwxnw vs differ
&lv_5=14
&inote_5=(184){4},,,,,,,,4b/2h[4:1],
{8}4,35,,5,46,{16}6,5,
{8}6-8[8:1],1,6-4[8:1],3,6,2,{16},,3,3,
{8}4,3,5,6,,46,{16},,6,4,
{8}6-8[8:1],1,6>4[8:1],3,6,2,{16},,2,3,
{4}46,{8}5,6,4,3,,26,
7>1[8:1],2,7<5[8:1],4,7,3,,7,
{4}46,{16}3,5,{8}2h[4:1],,8,{16},,6,4,
{8}7>2[8:1],1,7<5[8:1],4,7,3h[8:3],,,4,
5,46,3,,28,{16},,1,1,
{8}7>2[8:1],1,7<4[8:1],5,7,3h[4:1],{16},,,,3,
4,{8}2,8,7,,16,,,8>2[8:1],
3,8<5[8:1],5,8,2-6[8:1],,2,
{4}7-4[8:1],{8}7,1,,25,{16},,3,3,
{8}1-5[8:1],2,1<6[8:1],3-8[8:1],1,3,{16},,4,5,
{8}63,3,7,7w3[8:1],,7b,,,1,
2,4,{16}3,4,3,4,{8}2,{4}2,
7,{8}56,56,,47,{4}47,
{8}3,8<5[8:1],{4}2,{8}1,24,,6,
{16}6,5,{8}6,7,74,,1,{16},,3,4,
3,4,{8}3,2,{16}6,5,{8}6,6,,47,
{4}5b/7h[4:1],{8}5,64,,4,53,{16}3,4,
{8}3-1[8:1],8,3-5[8:1],6,3,7,{16},,6,6,
{8}5,6,4,3,,53,{16},,3,5,
{8}3-1[8:1],8,3<5[8:1],6,3,7,{16},,7,6,
{4}53,{8}4,3,5,6,,73,
2<8[8:1],7,2>4[8:1],5,2,6,,2,
{4}53,{16}6,4,{8}7h[4:1],,1,{16},,3,5,
{8}2<7[8:1],8,2>4[8:1],5,2,6,6h[4:1],,
{8}1,7,3,8<5[8:1],,4>1[8:1],,4,
7,7,3,3-8[8:1],,7-4[8:1],,7,
2,1,6,5,2,3/5V74[4:1],,4,
3,2,1,5,{12}5,2,6,3,{24},{8}7,
{4}5b/7h[4:1],{8}5,64,,4,53,{16}3,4,
{8}2<7[8:1],8,2-5[8:1],6,2,7,{16},,6,6,
{8}5,6,4,3,,53,{16},,3,5,
{8}2v8[8:1],7,2>5[8:1],5,2,6,{16},,7,6,
{4}53,{8}4,3,5,6,,7h[8:1]/2,
1<7[8:1],6,1>4[8:1],5,1,6,,2,
{4}53,{16}6,4,{8}7h[4:1],,1,{16},,3,5,
{8}2>5[8:1],6,2<7[8:1],7,2v5[8:1],6-1[8:1],2b,6b,
3,3,4,4,2,25,,7,
47,4,6,6,{4}1,{8}1,8b-4[8:1],
,1,1,5,5,1/6h[4:1],,8bs4[8:1],
,5,{16}5,6,{8}7,1,2,3,8bz4[8:1],
,1,{16}2,2,,6,{4}6,{8}1,8b>3[8:1]/7,
{4}6,{12}6,6,5,7,7,4,8,{24},{8}8b<5[8:1],
,1,{16}2,2,,7,{8}7,4,{16}6,5,6,5,
{8}7,4,8,2,{12}2,4>1[12:40],1,7,5,8<5[1:3],
{1},,,,
{16}1b,
7,,5,{8}6,34,,2,{16},,2,2,
{8}6h[8:1],4,3h[8:1],5,2,62,{16},,1,1,
{8}7,7,5,6,,46,{16},,3,3,
{8}5,2,{4}5h[4:1]/2,{16}1h[16:3],,,4h[16:3],,,{8}7>3[16:3],
,,{4}4b-7[8:1],{16}4,2,{8}2b>5[8:1],{16},,2b-6[8:1],8,
{4}8,{8}8b-3[8:1],2,8,{16}1,1,{8}4,2,
{16}5,6,7,8,{4}1b-6[8:1],{16}1,4,{8}4b-8[8:1],{16},,4b>1[8:1],7,
{4}7,{8}7,6,5,2,3,4/6h[4:1],
,,{4}1bv6[8:1],{16}1,7,{8}7b>2[8:1],{16},,7b-4[8:1],2,
{8}2,3b,2,1,5,6,{16}71,,,8,
,,2,1,{4}3b-8[8:1],{16},,6b-4[8:1],6,,1,{8}6b<1[8:1],
2,{16}2,3,{4}4qq5[2:1],,,,8b-4[8:1],
{8},3b-8[8:1],,3b/7b,
{16},,6,6,{8}1,1,5,2,7h[8:1],{16}3,3,
{4}8,{8}83,27,{4}16,{16}6,1,{8}6h[8:1],
{16},,3,4,{8}3,5,{16}16,,,1,{8}16,2,
{4}7,{16}5,6,,4,{8}5,7,{16}5,6,,,4,
5,{8}4,6,6,2,2,7-3[8:1],1,
,,1,1,4,2,2,5,
3,{16}3,4,3,,,5,{8}5,2,6,4pp1[1:3]/7,
{1},,,{4},,,{8},{16}7,
8,
{8}7,1,2,8pp5[4:3],{1},{12}2,
8,3,7,1,6,
3,8,4,6,6,1,7,7,4,6,2,4,
{6}3h,{12}5,2,2,4,1,1,2,4-8[4:1],3,7,
{1},
{8}7h[1:1],,,,,5,,3,
{1}3,
{16}2,4,3,4,3,4,3,1,4,3,4,3,4,2,5,4,
5,4,5,3,6,5,6,5,6,
4,7,4,7,4,7,
2,8,2,8,2,
7,1,7,1,
6,2,6,2,
5,3,5,3>7[8:1],
{8}5bv3[8:1],{16},,,,,,,,1,6,1,6,,2,
{8}2,7,5,7,4,7,7h[8:1],{16}6,7,
5,7,5,7,{8}4,{16}6,2,6,2,{8}5,{16}3,4,3,4,
{8}1,{16}6,5,6,5,{8}8,{16}2,7,1,6,{48},,,,,,,,,,,,{12}3,
4,3,6,5,6,2,4,2,7,5,7,
{16}1,1,{8}8,{16}2,,,6,{8}6,5,6,4,
7,3,3,8,1,7,{16}2,,,7,
{8}7,1,1,5,5,24,,3,
3,7,7,5,6,5,6,4,
5,4,5,3,4,3,{16}4,3,4,3,
{8}5,2,,2,7,{16}1,8,1,8,1,8,
1,8,1,8,1,8,1,8,1,8,1,8,1,8,1,8,
1,8,1,8,1,8,1,8,1,8,1,8,1,8,1,8,
1,8,1,8,1,8,1,8,1,8,1,8,{8}1,7,
{4}1b-5[8:1],{8}7,7,4,{16}6,5,{8}6,3h[8:1],
{4}1bs5[8:1],{8}2,2,6,6,{16}3,3,7,7,
{8}1bz5[8:1],8,{12}8,7,6,{16}4,3,2,1,{8}7,7,
{4}26,1-5[1:1],,,,,,3b-5[8:1],
{16}6,7,{8}8,,4-2[8:1],,46,{4}7,
{8}1<6[8:1],8,2,3,{16},,3,3,{4}7b-5[8:1],
{8},3-7[8:1],,34,,8,{4}16,
{8}4,{16}5,4,,,{8}6-1[8:1],,,{4}2b-5[8:1],
{8},8b>3[8:1],8,{16}4b-8[8:1],4,,,{8}7,6,5,
{16}2,2,{8}4,{4}3,{8}7<4[8:1],3,{4}7,
{8}2,1p5[8:1]*q5[8:1],,1w5[2:1],,,,,,,,,,,{4}7b-4[8:1],
{8}7,{16}3bv8[8:1],3,,,{8}7b>5[4:1],,6,6,7,
7,3,3,{16}2,8,{4}8-4[8:1],1,
{8}3-8[8:1],2,5,5,3-7[8:1],2,{4}6,
{8}16,2,{16},,8,8,{4}3h[4:1],{8}8,1<6[8:1],
,4,{4}2v5[8:1],{8}6,8<5[8:1],,3,
3,5,2,6,{4}1,{8}7,7,
8,8,{16}6,6,{8}2,2,5,5,3,
{12}3,4,2,5,1,6,{16}2,1,3,8,{4}4,
{8},5/4w8[8:1],,4b,{16},,,,,,6,5,
{8}6,4,7,3>1[8:1],,,{4}7<5[8:1],
{8},8-4[8:1],,78,{16},,6,5,6,5,7,8,
7,8V61[4:1],,1,,,{8}2,{24},,,,,,2,3s7[48:13],{6}4z8[4:1],
E
