&title=扬旗鸣鼓
&artist=闹闹丶/洛天依Official/乐正绫
&first=0.2
&lv_5=14
&des_5=星锌vs.若雛
&inote_5=
(175){4},,,,B7/B6/E7/B2/B3/E3/Ch[8:1],
E1,E2,E3,
E4,E5,8/7,5/4,
2/1,E8,E7,E6,
E5,E4,2/1,4/5,
7/8,B2/A2,E4/E5,B6/A6,
E8/A7,C,7/1-5[8:1],1/6-2[8:1],
6/3,E4,E5,E6,
{8}1/8,8-5[8:1]/1-4[8:1],,1/8,{4},{8}6h[8:1],4h[8:1],
7h[8:1],{16}2-5[8:1],1,3,8,{8}2,,7-5[8:1],3,7,
,{16}3,4,{8}2,6/4,7,8/2,7,1/5,
3,4/7,6,5/3,2,1/7v4[8:1],{16}6,5,{8}7,
,{16}2,1,{8}3h[8:1],4,{4}8/2h[4:1],5h[4:1],
{8}1b,2/8-5[8:1],3,8/4,,3h[8:1],5h[8:1],2h[8:1],
,{16}7,8,6,1,{8}5h[8:1],3-6[8:1],2,3/7-4[8:1],8,
7/1-5[8:1],2,1/6,7,,7-4[8:1],1/6,8/7,
,{16}2,1,3,8,{8}4,{4}5-1[8:1],5/7,
{8}2/6,2h[8:1]/6h[8:1],,8/4,{4}8h[8:1]/4h[8:1],{8}3/7,3h[8:1]/7h[8:1],
,{16}E2,C,{8}E6,7,7,3,{4}3,
6h[4:1],5h[4:1],4h[4:1],{16}3,2,{8}1,
6,7<4[8:1],,7/1,{4},{8}2pp5[2:1],2,
6,7,,6,{4}8,{8}6h[8:1],5h[8:1],
4h[8:1],3,{4}8-3[8:1]/7-4[8:1],{2}8/7,
{4}2v5[4:1],5-3-1[4:1],1-5[4:1],{8}5>1[4:1],6,
7,7,,8h[8:3],,,,{16}2,3,
{8}4-1[8:1],B7/B6/E7/Cfh[2:3],{16},,,,,,,1h[16:1],{8},2,
3,4,3,2-6[8:1],,2,{4},{8}7,
7,8h[8:1],1h[8:1],{4}2-5[8:1],2/4,
{8}2,2,1h[8:1],8h[8:1],{4}7-4[8:1],7/5,
{8}6,6,5h[8:1],4h[8:1],{4}3-8[8:1],3/1,
{8}3,3,4h[8:1],5h[8:1],{4}6-1[8:1],6/8,
{8}3/8<5[8:1],7,8/2-6[8:1],3,2/4,7,{4}1/8,
{8}7/4>1[8:1],3,4/6-2[8:1],5,6/8,3,{4}5/4,
{8}8-4[8:1],1-5[8:1],8-6[8:1],1-3[8:1],8,1,{32}8,B8,C,B4,1,B1,C,B5,
{8},2x/7x,8-6[8:1]/1-3[8:1],5/4,{4}1bs5[8:1]/8bz4[8:1],8b/1b,
2h[4:1]/7-5[8:1],7,1h[4:1]/7-5[8:1],7,
6h[4:3]/1-3[8:1],1,2-4[8:1],{8}2,7,
{4}8h[4:1]/3-5[8:1],3,3h[4:1]/1-7[8:1],1,
2h[4:3]/8-6[8:1],8,7-5[8:1],7,
,2-6[4:11],7,3,
{8}8,{4},{8}1,{4}8,1-3[8:1],
5-1[8:1],4-8[8:1],7-3[8:1],2-6b[8:1],
{2}2h[4:1],4h[4:1]/8h[4:1],
{8}5/3,{16}6,5,{8}7-3[8:1],{32}1,2,3,4,{4}7b/5h[4:1],{24}2-6[8:1],1,8,7,6,5,
{8}2/4-8[8:1],4,1>4[8:1],1,{4}7b,1<6[8:1]*v4[8:1],
1b,{8}1/2,3/5,6/4,7/5>1b[8:1],{4}6/8h[4:3],
{8},7,5,3,{4}1-5b[8:1],C,
{8}4b/6b,{16}7,7,{8}8,6/1,{4}5/2h[8:3],{8}3-7[8:1],3,
1-5[8:1],1,6-2[8:1],6,{4}4,7-3b[8:1]/1-5b[8:1],
7b/1b,{8}2/6,7,6/4,7,{16}1/6-2[8:1],2,3,4,
{4}6/5>1[8:1],5/8w4b[8:1],8,7b/1b,
{32}8-4b[8:1],7,6,5,4,3,2,1,{4}8b,{8}2/6,{16}3,3,{8}4,2/1,
8-4[8:1],7-5[8:1],8-2[8:1],7,{4}8,3-8[8:1]/7-4[8:1],
7b/3b,{8}2/6,1/7,6/5,4/5<1[8:1],3/4,2bxh[8:5],
,3,5,7,{4}1-5[8:1],C,
{8}4/6,{16}2,1,{8}3,4/5,6/5,8/7,1/6<2v5[2:1],2,
3,4,{4}5-3[8:1],1xh[4:1],{8}8,2bx/7bx,
{16}3,6,4,5,3,6,4,5,3,6,4,5,3,6,2,7,
{4}8z4[8:1]/1s5[8:1],1>4[8:1]/8<5[8:1],{64}8b/1b,D8/D2,A2/A7,D7/D3,A6/A3,D6/D4,{32}A5/A4,{8}D5fh[32:1],{4},{8}2/8,
3,4,7/5V31[32:5],,5/6,7,8V64[32:5],
,3/8,2,1,{4}8-4[8:1],6-1[8:1],
{8}2,3,4,5V71[32:5],,4/5,3,2V46[32:5],
,6/2,7,8,{16}A5,A4,A3,A2,A1/A4,A5,A6,A7,
{4}A8/2b>5[8:1],{8}5/2,7p3[8:1],,7/3,2,1h[4:1],
,{16}7,7,{8}8,5/6,{16}4-8[8:1],3,{8}2-5[8:1],4,2,
{4}6bh[8:3],{8}7,8>3[8:1],,7/8,6,5<8[8:1],
,4/5,3,2,{4}1-5b[8:1],1x,
{24}2,3,4,5b/D7/E7/A6/A7,,,,,,7,6,5,{4}4b/A2/D3/A3/E3,{24}2,3,4,5b/D8/A8/E8/A7,,,,,,{16}6,
5,{8}6,6,6,6,6,6,
{2}6h[2:1]/4h[4:1],{4}4,3,
{1}2h[4:3]/4qq5[4:3],
{4}1-3-6[4:3],8,7,6-4-1[4:3],
7,8,{2}6h[4:1],
{4}5/3,2,1/B5/B4/E5,8,
7,6qq3[2:1],{2}6x/2h[4:1],
1>7[4:3],B3/E4/B4,
{4}8,1>7[2:1],{2}3h[2:1],
{4}E6f/D6/A6/A5/B6/B5,{8}1/2,8/3,{4}4/7-4[8:1],8xh[8:1],
{8}3/1,3,3/4,3,{4}3/2-5b[8:1],8xh[8:1],
{16}6,5,{8}7,8/4,{16}7,5,{4}6-1[8:1],4xh[8:1],
{16}2,2,{8}1,6/4,5/3,{4}4/2-5b[8:1],8xh[8:1],
{16}6,5,{8}7,{16}7,5,{8}6,{16}6,5,{8}7,{4}8xh[8:1]/4xh[8:1],
{16}3,4,{8}2,{16}2,4,{8}3,{16}3,4,{8}2,{4}1bxh[8:1]/5bxh[8:1],
{16}6,5,{8}7,{16}5,6,{8}4,{16}6-8-4[16:3],5,{8}7,{4},{8}3,
2,5/6,7,8/1,{16}7x/2x,6x/3x,{4}5bx/4bx,
8/2-5[8:1],2/6,7/2-4[8:1],2/6,
8h[2:1]/2-5[8:1],2,2-4[8:1],{8}2/7,6,
{4}5/2-5[8:1],{8}2,7,{4}2-4[8:1],5/2<3[1:1],
{1}8h[4:3],
{8}6b,{4},{16}5,5,{4}7-5[8:1],7,
{8}1h[8:3],{4},{8}4,{2}3<6[8:1],
{1}Ch[2:3],
{2},1xh[4:1],
{8}7/3,{24}5,4,6,{8}5-1[8:1],7/8,{4}5/2h[8:1],{8}4/3,8/2,
{16}6,5,{8}7,1z5[8:1]/2s6[8:1],8/3,{4}1b/2b,7-2[8:1]/3-8[8:1],
3<6[8:1],{8}3/6,7,{4}8-4-6<7[4:1],{8}8,2,
,2/8,3,6/4,{24}7,8,7,8,{12},{4}6b/1b,
{8}4/3,{16}2,2,{8}1,8/3,6/5,{16}3,3,{8}4,2/1,
8-4[8:1],7-5[8:1],8<2[32:7],7,{4}8b,8h[4:1],
{16}2b,4,3,5,4,6,5,7,8b,6,1,5,2,4,3,5,
4b,5,6,7,8/4b,1,2,3,4/8b,5,6,7,{4}8h[8:1]/4h[8:1],
2b/6b,{8}3>2-8-4[8:3],6,5,4-2[8:1],5,6h[4:1],
,1,8v3[16:3],7,{4}6/8,{8}5-1[8:1],4/3,
{4}5/2b,{8}8/2,7/3,{24}5,4,6,5,{12},{8}7/8,6/1,
2/4-8[8:1],5,4/2>5[8:1],3,{4}2/1,5x-1[8:1]/6x-2[8:1],
6b/5b,{8}7<4[8:1],8,{4}2h[4:1],{8}1,8,
6/5,{16}7,7,{8}8,1,{4}2bxh[8:1]/6bxh[8:1],{16}1,7,1,7,
{24}1b,2,3,4,5,6,8b,7,6,5,4,3,8b,1,2,3,4,5,1b-5b[8:1],2,3,4,5,6,
{4}7b/1b-7b[8:1],1b,{32}2,3,4,5,6,7,8,1,{4}6b/2b,
4-2-8[2:1],{8}6,7,{4}8-4-2[2:1],{8}7,6,
7,8-5[8:1],1v4[8:1],8,{4}1,3b-1b[8:1]/6b-8b[8:1],
3b/6b,{8}8-6-2[2:1],1,{4}2,{8}2-8-4[2:1],3,
4,3,4-6-8[8:3],3,{4}2-8b[8:1],2b-5b[8:1],
2b,{8}1-5[8:1]/8-4[8:1],2/7,{4}1/8,{8}1-3[8:1]/8-6[8:1],2/7,
{4}1b/8b,{8}2-8[8:1]/6-4[8:1],5/1,{4}2/6,{8}1-4[8:1]/5-8[8:1],3/7,
{4}1b/5b,{8}2-7[8:1]/6-3[8:1],4/8,{4}2b/6b,8xh[8:1]/4xh[8:1],
{8},{16}8,4,{8}8,1/5,1/5,2/6,3/7,4/8,
{32}A1,B1,C,B5,{8}A5h[8:25],{4},{8}8-2[8:1],E6,{4}8,
{8}1-7[8:1],E5,{4}1,{8}8-3[8:1],E6,{4}8,
{8}1>4[8:1],E5,{4}1<6[8:1],{8}1-3<4[8:1],E6,{4}1-7<6[8:1],
{8}1-3[8:1],E5,{4}1,4-2[8:1]/8-6[8:1],4/8,
A2h[4:7]/7-5[8:1],7,{8}6-8[8:1],E2,{4}6,
{8}7-5[8:1],E3,{4}7-1[8:1],{8}7-3[8:1],E2,{4}7b,
{8}5/6,7b/E1/A1/B1/E2,,4/3,{4}5b/B3/E3/A3/E4,{8}7b/1b,A6/B6/C/B2/A2/E7/E3,
,{16}8,8,{8}8,1/7,3-8[8:1]/5-8[8:1],2/6,{4}3/5,
{8}2/6,2h[8:5]/6h[8:5],{4},,,{8}4/8,
4h[8:5]/8h[8:5],{4},,,{8}1/5,
1h[4:1]/5h[4:1],{4},{8}3/7,3h[4:1]/7h[4:1],{4},{8}1/6,
2,3/7,8,5/1,{16}1,1,{4}1w5[8:1],
1b,{24}8-4[8:1],1,2,3,4,5,{4}8/6-8[8:1],{24}1/6-4[8:1],2,{6}3,
{24}3/6,2,{12}1,,{24}8-5[8:1],1,2,3-6[8:1],{12},{8}8-3[8:1],3,{4}8,
{32}A4,B4/E5/E4,C/B6/B2,B7/B1,{8}A7/A8/A1,2,2/6,7/3,7/3,8p4[8:1]/4p8[8:1],8/4,
{4}8b>3[8:1]/4b<7[8:1],8bx-4[8:1]/4bx-8[8:1],8bx/4bx,E6/B6/E7/E3/B2/E2,
{24}8x/6x-3[8:1],1,2,3,4,5,{8}6/8<5[8:1],8,{4}8>3[8:1],{32}8,7,6,5,{4},{8}2-8[8:1],
6-4[8:1],2,{4}6w2[8:1],6>3[8:1]*<1[8:1],
6,{24}2-6[8:1],3,4,1,8,7,{4}2b<7[8:1],{16}5x/2-5[8:1],4x,{8}3x,
{4},{8}8b/7b,3b/5b,{4}2b/1b-4[8:1],7/1-6[8:1],
1/3,{8}8v5[8:1]/2v5[8:1],4/6,{4}2/8,{8}3/7,3h[8:1]/7h[8:1],
,{24}1-5[8:1],2,3,7-3[8:1],6,5,1,{12},{4}7,8w4[8:1],
8b,{8}2/7,4/5,{4}3/6,4>1[8:1]/5<8[8:1],
4z8[8:1]/5s1[8:1],4/5,{2}A8/B8/E8/B7/A7/E7/B6/E6/A6/B5/A5/E5/B4/E4/A4/B3/A3/E3/B2/A2/E2/B1/E1/A1/Cf,
{8}4h[8:1],5h[8:1],6h[8:1],7h[8:1],,1-5[8:1],8,1,
,{16}6,5,6,5,{8}6-8[8:1],8-4[8:1],6,,2,
1/3,4,8/2,7h[4:1],,8v5[8:1],1,8/2,
,{16}3,4,2,4,1,4,{32}8,7,6,5,4,3,2,1,{4}8h[8:3],
{8}4b,5,6,7,8/3,1-5[8:1]/2-5[8:1],8/3,1/2,
,{16}3,5,3,5,2,6,2,6,{8}7/1-4[8:1],2,1/7-3[8:1],
8,7/5-1[8:1],4,5/7h[4:1],{4},{8}6/2,3h[8:1]/5h[8:1],
,1/7,{16}8<5[8:1]*>3[8:1],8,{8}8,{4}8w4[8:1],8,
{8}2/6,2h[8:1]/6h[8:1],,4/8,{4}4h[8:1]/8h[8:1],{8}2/6,{32}2b/6b,7/3,4/8,1/5,
E
