&title=精鸡独立
&artist=Zris
&first=0
&des=东天的太阳好hot
&lv_5=?
&inote_5=(143){8},,,,1bxqq7<4pp6>3-1b[1000#8:40],,,,,,,,
(140)
{16}8xv2[46#32:1],,,
8xv3[62#24:1],,,
8xv5[94#16:1],,,
8xv6[191#8:1],,,
8bx,,
,,
{16}8xv3[46#32:1]*v5[46#32:1]*v2[46#32:1]*v6[46#32:1],,,
8x,,,
8x,,,
8x,,,
8bx,,
,,
{16}2xv8[46#32:1],,,
3xv8[62#24:1],,,
5xv8[94#16:1],,,
6xv8[191#8:1],,,
2bx/3bx/5bx/6bx,,
,,
{4}1bxv4[1000#8:14]*q5[1000#8:14],,
2bx-7b[1000#8:14]/4bxp7b[1000#8:14],,
{4}2bxpp3[1000#8:14],,
2bxqq6[1000#8:20]/7bxpp3[1000#8:20],,
{16}2xqq6b[46#32:1]/7xpp3b[46#32:1],,,,
,,3bxV15[1000#8:16],,
,,,,
2bx/7bx,Cf,,,
{16}2xh,,8xh,,6xh,,,,
5bxh,5bxh,5bxh,5bxh,5bxh,5bxh,5bxh,,
{16}7xv4[46#32:1]*v5[46#32:1],,Cf,Cf,Cf,Cf,Cf,Cf,Cf,Cf,Cf,Cf,7bx,,,,
{16}1bxh,C,2bxh,C,3bxh,C,4bxh,C,5bxh,C,6bxh,C,7bxh,C,8bxh,C,
{16}1bxh/8bxh,C,2bxh/8bxh,C,,,,,{64}3bx,B3f,Cf,B7f,A7f,,,,{16},,,,8xh,,
{8}8xh`8?w4[8:2],6xh,4?w8b[8:2],,,,,,
{48}1bxq1b[1000#8:35]/8bxq8b[1000#8:35],
2bxq2b[1000#8:34]/7bxq7b[1000#8:34],
3bxq3b[1000#8:33]/6bxq6b[1000#8:33],
4bxq4b[1000#8:32]/5bxq5b[1000#8:32],,,,,,,,,{8},,,,,,
{8},
{48}4bxp4b[1000#8:35]/5bxp5b[1000#8:35],
3bxp3b[1000#8:34]/6bxp6b[1000#8:34],
2bxp2b[1000#8:33]/7bxp7b[1000#8:33],
1bxp1b[1000#8:32]/8bxp8b[1000#8:32],,,,,,,,,
(144){8},,,,
(140){8}4?w8b[8:2],,8?w4[8:2],,,,,,6xh,8xh,8xh,,
{64}A7f,B7f,Cf,B3f,3bx,,,,{16},,,C,2bxh/8bxh,C,1bxh/8bxh,
{16}C,8bxh,C,7bxh,C,6bxh,C,5bxh,C,4bxh,C,3bxh,C,2bxh,C,1bxh,
{16},,,4xv7[46#32:1]/5xv7[46#32:1],Cf,Cf,Cf,Cf,Cf,Cf,Cf,Cf,Cf,Cf,,
{16}4bx/5bx,,,,
5bxh,5bxh,5bxh,5bxh,5bxh,5bxh,5bxh,,6xh,,8xh,,
{16}2xh,,,,{16}2xqq6b[46#32:1]/7xpp3b[46#32:1],Cf,,,
,,5bx-1-3[1000#8:16],,
,,,,
2bx/7bx,,,,
{4}2bxqq6[1000#8:20]/7bxpp3[1000#8:20],,
2bxpp3[1000#8:14],,
{4}7bx-2b[1000#8:14]*q4b[1000#8:14],,
4bxv1[1000#8:14]/5bxp1[1000#8:14],,
{16}6x`8?v6[46#32:1],,,
5x`8?v5[62#24:1],,,
3x`8?v3[94#16:1],,,
2x`8?v2[191#8:1],,,
8bx,,
,,
{16}2?v8[46#32:1]/3?v8[46#32:1]/5?v8[46#32:1]/6?v8[46#32:1]`8x,,,
8x,,,
8x,,,
8x,,,
2bx/3bx/5bx/6bx,,
,,
{16}8x`6?v8[46#32:1],,,
8x`5?v8[62#24:1],,,
8x`3?v8[94#16:1],,,
8x`2?v8[191#8:1],,,
2bx/3bx/5bx/6bx,,
,,
{8},,{384}1bxqq7<4pp6>3-1b[1000#8:10],E
