&title=死にたくなったら電話して
&artist=vermilion
&first=0
&des=海風清香的死路一條
&lv_5=13+
&des_5=
&inote_5=(213)
{1},
{16}2h[8:14]/7z3[4:4],,,,
,,,,
,,,,
,,,,
{16},,,,
,,,,
,,,,
4,,,,
{16}6h[8:14]/3z7[4:4],,,,
,,,,
,,,,
,,,,
{16},,,,
,,,,
,,,,
1,,,,
{16}3h[4:3]/7,,,,
5,,,,
,,,,
5,,,,
{16},,,,
5,,,,
5,,4,,
5,,,,
{16}2h[8:6]/6,,,,
8,,,,
,,,,
8,,1b/7b,,
{16},,6,,
2,,7,,
4b,8,4,8,
4,,,,
{16}3,,4,,
2,,2>5[8:1],,
,,28,,
,,7-4[8:1],,
{16},,4,,
3,,2,,
4,1,4,1,
4,,,,
{16}2,,4,,
3,,3-8[8:1],,
,,43,,
,,6,,
{16},,7,,
1,,6,,
2,5,2,5,
2,,,,
{16}6,,1,,
7,,7<4[8:1],,
,,37,,
,,1-5[8:1],,
{16},,5,,
6,,7,,
4,8,4,8,
4,,,,
{16}8,,5,,
6,,6-1[8:1],,
,,36,,
,,4,,
{16},,2,,
6,,4,,
7-3[8:1],3,7,3,
7,,,,
{16}2pp5[4:3],,,,
6,,,,
6,,,,
6,,,,
{16}6h[4:1],,,,
5h[4:1],,,,
4h[4:1],,,,
3,,,,
{16}6pp5[4:3],,,,
2,,,,
2,,,,
2,,,,
{16}2>5[4:1],,,,
5<8[4:1],,,,
8>3[4:1],,,,
3,,,,
{16}7pp2[4:3],,,,
3,,,,
3,,,,
3,,,,
{16}3h[4:1],,,,
4h[4:1],,,,
5h[4:1],,,,
6,,,,
{16}2-5[8:1],,,,
6,,,,
1-6[8:1],,,,
4,,,,
{16}4-8[8:1],,,,
7z3[4:1],,,,
2,,1h[128:1],,
1h[128:1],,,,
{16}3,,3h[8:3],,
1,,,,
4-6[8:1],,,,
2-4[8:1],,,,
{16}7,,7h[8:3],,
6,,,,
5-3[8:1]*-7[8:1],,,,
5,,,,
{16}2h[4:1]/4,,,,
5,,,,
6h[4:1]/5,,,,
3,,,,
{16}1V35[4:1],,,,
5V71[4:1],,,,
1,,,,
5,,,,
{16}6<1[8:1],,,,
2>5[8:1]/6,,,,
8-4[8:1]/2,,,,
2-6[8:1]/8,,,,
{16}5qq5[16:6]*pp5[16:6]/2,,,,
5,,,,
,,,,
2-4[8:1],,,,
{16}24,,,,
8-4[8:1],,,,
18,,,,
2h[4:1],,,,
{16}6,,6,,
1-5[8:1]/7-5[8:1],,,,
,,,,
,,,,
{16}4v5[8:1]/3,,,,
4/5,,,,
6,,,,
,,,,
{16}5v4[8:1]/6,,,,
5/4,,,,
3,,,,
2,,2,,
{16}1-3[8:1],,,,
1-7[8:1],,,,
1-4[8:1],,,,
1-6[8:1],,,,
{16}1,,,,
1w5[8:1],,,,
1,,,,
2,,2,,
{24}8v5[8:1],7,6,5,
,,8,,
,,,,
8q4[8:1],7,6,5,
,,8,,
,,,,
{24}8V25[16:3],7,6,5,
,,8,,
,,,,{16}7,,3,,
6,,2,,
{16}18,,18,,
27,,27,,
36,,36,,
45,,5bw1[4:1]/4b,,
{16},,,,
,,,,
3,7,3,7,
3,,,,
{16}2b>5[8:1]/8b<5[8:1],,,,
2/8,,,,
7-3[8:1],,7,,
4,,4,,
{16}2-5[8:1],,2,,
6,,6,,
8w4[8:1],,,,
8,,,,
{16}2-5[8:1],,5,,
2,,6,,
8-4[8:1],,3,,
8,,2,,
{16}1,,2h[8:1],,
6,,7h[8:1],,
3,8,3,8,
3,,,,
{16}7b-3[8:1]/1b-5[8:1],,,,
7/1,,,,
4-1[8:1],,4,,
7,,7,,
{16}6-4[8:1],,6,,
2,,2,,
1<6[8:1]*>4[8:1],,,,
1,,,,
{16}7-4[8:1],,4,,
7,,3,,
2-6[8:1],,5,,
2,,7,,
{16}8,,8,,
17,,17,,
2,6,3,5,
4,,,,
{16}6-4[8:1],,,,
1,,1,,
7-3[8:1],,,,
4>7[16:5],,4,,
{16}1,,,,
5-8[8:1],,5,,
4,,,,
5-3[8:1],,5,,
{16}7,,,,
6-4[8:1]/2,,,,
3,,,,
2,,2,,
{16}43,,,,
7,,7,,
8-5[8:1]/1-4[8:1],,,,
,,,,
{16}2-6[8:1],,,,
8,,8,,
4-1[8:1],,,,
7z3[4:1],,7,,
{16}3,,,,
1-5[8:1],,1,,
8,,,,
4-2[8:1],,4,,
{16}6,,,,
1-3[8:1]/5,,,,
8,,,,
7,,7,,
{16}86,,,,
3,,3,,
4-1[8:1]/5-8[8:1],,,,
,,,,
{16}2,,7,,
4,,4>1[8:1],,
,,48,,
,,7-5[8:1],,
{16},,1,,
2,,3,,
6-1[8:1],4,6,4,
6,,,,
{16}2,,4,,
3,,3-8[8:1],,
,,43,,
,,6,,
{16},,7,,
1,,6,,
2-6[8:1],5,2,5,
2b,,,,
{16}5h[8:1]/4h[8:1],,,,
7,,7<4[8:1],,
,,37,,
,,1-3[8:1],,
{16},,4,,
5,,6,,
3-6[8:1],7,3,7,
3,,,,
{16}7,,3,,
5-8[8:1],,1-4[8:1],,
,,,,
,,3b/6b,,
{16},,5b/7b,,
,,2b/4b,,
,,1b/8b,,
1b/8b,,,,
{16}7bz3[8:58]/2bs6[8:28],,,,
,,,,
,,,,
,,,,
{16},,,,
,,,,
,,,,
,,,,
{16},,,,
,,,,
,,,,
,,,,
{16},,,,
,,,,
,,,,
,,,,
{16}6h[8:1],,,,
,,,,
,,,,
,,,,
{16},,,,
,,,,
,,,,
6h[8:1],,,,
{16}6,,,,
,,,,
,,,,
,,,,
{16},,,,
,,,,
6h[8:1],,1b,,
1b,,,,
{16}3h[2:1]/4,,,,
1,,,,
4h[4:1],,,,
5,,,,
{16}3-1[8:1],,,,
5-7[8:1],,,,
4-8[8:1],,,,
6,,,,
{16}1>4[8:1]/5,,,,
7,,,,
1<6[8:1]/5,,,,
3,,,,
{16}1-5[8:1],,,,
8-6[8:1],,,,
2-4[8:1],,,,
5,,,,
{16}6h[2:1]/5,,,,
2,,,,
5h[4:1],,,,
8,,,,
{16}7-5[8:1],,,,
1-3[8:1],,,,
8-4[8:1],,,,
2,,,,
{16}1>4[8:1]/5,,,,
7,,,,
5>2[8:1]/1,,,,
7,,,,
{16}1-5[8:1]/5,,,,
8-3[8:1],,,,
2-7[8:1],,,,
8p1[1:4],,,,
{16}4b,,,,
,,,,
,,,,
,,,,
{16},,,,
,,,,
,,,,
,,,,
{16}3,,4,,
5,,6,,
,,,,
,,,,
{16},,,,
,,,,
,,,,
,,,,
{16}6,,6,,
5,,4,,
,,,,
5,,5,,
{16}4,,3,,
,,,,
3,,3,,
4,,,,
{16}6,,5,,
4,,3,,
6,,5,,
4,,3,,
{16}2,,2,,
1,,1,,
8,,8,,
7,,,,
{16}5v4[8:1]/6,,,,
5/4-2[8:1],,,,
2,,,,
,,,,
{16}4v5[8:1]/3,,,,
4/5-7[8:1],,,,
7,,,,
8,,8,,
{16}4>1[8:1],,,,
4<7[8:1],,,,
4-1[8:1],,,,
4-7[8:1],,,,
{16}4,,,,
4w8[8:1],,,,
4,,,,
3,,3,,
{24}8v5[8:1],7,6,5,
,,8,,
,,,,
8q4[8:1],7,6,5,
,,8,,
,,,,
{24}8V25[16:3],7,6,5,
,,8,,
,,,,{16}7,,4,,
8,,3,,
{16}12,,12,,
34,,34,,
56,,56,,
78,,8bw4[4:1]/7b,,
{16},,,,
,,,,
2,6,2,6,
2pp1[1:1],,,,
{16}6pp5[4:11],,,,
,,,,
,,,,
,,,,
{16},,,,
,,,,
,,,,
,,,,
{16}4qq5[4:3],,,,
,,,,
,,,,
,,,,
{16},,,,
8b,,,,
2,6,2,6,
2,,,,
{16}7b<4[8:1]/1b>4[8:1],,,,
7/1,,,,
6-1[8:1],,6,,
3,,3,,
{16}4-8[8:1],,4,,
7,,7,,
5w1[8:1],,,,
5,,,,
{16}7-4[8:1],,4,,
7,,3,,
1-5[8:1],,5,,
1,,7,,
{16}6,,6,,
57,,57,,
4,8,3,1,
2,,,,
{16}2-6[8:1],,,,
8-5[8:1],,8,,
3-7[8:1],,,,
4V68[8:2],,4,,
{16}8-2[8:1],,,,
4-1[8:1],,4,,
5,,,,
4-6[8:1],,4,,
{16}2,,,,
3-5[8:1]/7,,,,
6,,,,
7,,7,,
{16}56,,,,
2,,2,,
1-4[8:1]/8-5[8:1],,,,
,,,,
{16}2-6[8:1],,,,
8-5[8:1],,8,,
4-1[8:1],,,,
7z3[4:1],,7,,
{16}3,,,,
1-5[8:1],,1,,
8,,,,
4-2[8:1],,4,,
{16}6,,,,
1-3[8:1]/5,,,,
8,,,,
7,,7,,
{16}86,,,,
3,,3,,
4-1[8:1]/5-8[8:1],,,,
,,,,
{16}2-6[8:1],,,,
8-5[8:1],,8,,
3-7[8:1],,,,
4<2[8:3],,4,,
{16}8,,,,
4-8[8:1],,4,,
5,,,,
4-7[8:1],,4,,
{16}2,,,,
2-5[8:1]/8,,,,
6,,,,
7,,7,,
{16}46,,,,
3,,2,,
1-4[8:1]/8-5[8:1],,,,
,,,,
{16}7-3[8:1],,,,
1-4[8:1],,1,,
5-8[8:1],,,,
3z7[4:1],,3,,
{16}6,,,,
5-1[8:1],,5,,
4,,,,
5-2[8:1],,5,,
{16}6,,,,
7-4[8:1]/1,,,,
3,,,,
3,,4,,
{16}25,,,,
6,,3,,
4-1[8:1]/5-8[8:1],,,,
,,,,
{16}2h[8:3]/6,,,,
4,,4,,
,,5-8[8:1],,
,,1,,
{16},,2h[8:1],,
4h[8:1],,3,,
6h[8:1],,5,,
7,,,,
{16}8h[8:3]/4,,,,
2,,2,,
,,1-4[8:1],,
,,6,,
{16},,8h[8:1],,
5h[8:1],,7,,
3h[8:1],,4,,
1b/5b,,,,
{16}2-6[8:1],,6,,
2,,8w4[8:1],,
,,8,,
,,26,,
{16},,48,,
7,,6,,
15,,2,,
3,7,3,7,
{16}3z7[4:3],,,,
,,,,
,,,,
,,,,
{16},,,,
8b,,,,
2,6,3,5,
4bpp5[1:1]*qq3[1:1],,,,
{16},,,,
,,,,
,,,,
,,,,
{16},,,,
,,,,
,,,,
,,,,
{16},,,,
,,,,
,,,,
,,,,
{16},,,,
,,,,
,,,,
,,,,
