&title=光放て!
&artist=柳麻美
&first=0.05
&des_1=不可以色色
&des_2=不可以色色
&des_3=不可以色色
&des_4=不可以色色
&des_5=Kondou
&lv_5=13
&des_6=不可以色色
&des_7=不可以色色
&des=不可以色色
&inote_5=(174)
{16},,54,,{64},7x/2x,,,{16},,,
4,5,4,5,4,5,4,5,3-1[8:1],4,3,4,3x,,,,
6,5,6,5,6,5,6,5,7-1[8:1],4,7,4,7x,,,,
2-6[8:1],8,2,8,2x,,,,7-4[8:1],5,7,5,7x,,,,
2^5[8:1],6,2,6,2b,,,,8,7,6,5,{12}2,2,4,
{16}1b,,,,3,4,3,4,2,4,2,4,1,5,1,5,
8,6,5,6,1,5,4,5,2,4,3,4,2x/5x,,2,,
{12}1b/3b,,8h[24:2],,7,,6qq3[8:4],,,,,,1,,,2-7[8:1],,,
{16}1<4[8:2]/2,,,,,,,,8b,,,,2,,4,,
3,,5pp3[8:3],,,,,,{16}1,,,1,,,1,,
8-5[8:1]/2-5[8:1],,,,82,,,,7b/3b,,,,,,34,,
2,,2,,5`4,,3,,3,,6`5,,4,,4,,7-1[8:1]/6,,,,
,,,,24,,5,,5,,64,,7,,7,,81,,1,,4,3,6,5,8hx[8:2],,,,
,,,,,,,{32}E4,B4,B5,E6,,,{8},,,
B7,,,,E1,,,,B2,,,,C/E5,,,,B6,,,,E8,,,,B1,,,,C/E4,,,,B5,,,,E7,,,,B8,,,,C/E3,,,,4h[8:4],,,,6h[8:6],,,,,5,5,,
4q8[8:4]/3h[8:3],,,,,,3,,
5p1[8:4]/6h[8:3],,,,,,8,,
4<8[8:4]/3h[8:3],,,,,,2,,
5>1[8:4]/6h[8:3],,,,,8,8-4[8:1],,
7x,,,6,,,5,,
4,,,3,,2,1-5[8:1],,
8b/1b,,7,6h[8:2],,5,45,,
1/2h[8:2],,4,5h[8:2]`3,,7,8`6,,
54,4`3,2,2h[8:2]`1,,6,54,,
81,,4,56,,7`8,6,4,
1b/3h[8:2],,,5h[8:2]`6,,,83,,
15,6,2,3/4h[8:2],,,6h[8:2]`5,,
8,,2,3h[8:2]/4,,2,14,8,
7b-5[8:1]*-4[8:1]/2,,,,3,42,1,{16}7,7,
5bp1[8:1],,,,5/6,,7^4[8:1],,,,7,,3,,2,,
1q6[8:1],,,,18,,7^2[8:1],,,,7,,3qq3[8:2],,,,
4,,,,6,,6-1[8:1],,,,4qq6[8:3]/6,,,,8b,,
,,,,7-2[8:1],,,,3-6[8:1],,,,5<3[16:5],,,,
1,,,,4,,5p1[8:1],,,,,,{12}7,6,5,{16}4q8[8:1]*-1[8:1],,,,,,,,
7x/3xh[8:2],,,,4,,4,,5b/2b,,,2x,1,,2x,,
3x/1,,,3x,8,,3x,,4x/8,,,4x,7,,4x,,
5x/7,,,5x,6,,5x,,1>7[8:2]/6,,1,,1/8,,,,
1q2[8:2],,1,,12,,,,4>6[8:2],,4,,45,,,,
4,,4,,62,,62,,{24}7b/3b,4,5,6,7,8,1<1[16:5],2,3,4,5,6,
7,E8,E7,E6,E5,E4,E3,E2,E1,E8,E7,E6,E5f/C,,,,,,
{16}1^4[8:1],,,,5p1[8:1]/1,,,,6pp4[8:2]/5,,,,6b/4b>6[8:2],,,,1,,8xh[8:2],,,,4x,,62,,8b/4bV26[8:2],,,,,,,,,,
85,,,,34,,2,,1b-6[8:1]/5b,,,,6-2[8:1],,7,,8^5[8:1],,,,8/4^1[8:1],,,,5-2[8:1]/4,,,,8^5[8:1]/5,,,,1-6[8:1]/8,,,,1/2,,,,7/3V52[8:2],,,,35,,6,,7V58[8:2],,,,75,,4,,3qq6[8:3],,,,5b/3b,,,,,,8,,8,,71,,
6b/2b-7[8:1],,,,4,,4,,5/3-8[8:1],,,,5,,5,,
6/4-1[8:1],,,,7-4[8:1]/4,,,,7/2-5[8:1]*-7[8:1],,,,2<4[8:2],,,,
8x,,,,8,,8,,7p3[8:1]/1,,,,{12}3,2,1,8>7[8:3],
,,E6f/B6/B5/8b,,,,,,{16}8,,8,,
7b/1b,,,2,,,2,,34,,,5,,,5,,
6/4^1[8:2],,,,6,,,,8,,7,,6V48[16:5],,,,
3bV51[16:5],,,,,,,,7,,,7,,,7,,
63,,,74,,,85,,8,,6,7,5,6,4,5,
3b<3[8:12]*>3[8:12],,,,,,,,,,,,,,,,
,,,,,,,,,,,,,,,,
{32}E2,E1,{16}E8,,,,,,,
E
