&title=冲破穹顶
&artist=塞壬唱片
&first=0
&des=Yoru MK
&lv_5=14
&des_5=Yoru MK
&inote_5=
(190){4},,,,2/8h[4:1],
2,3/7h[4:1],3,
4/6h[4:1],4,4/5h[4:1],4,
6/4h[4:1],6,7/3h[4:1],7,
8/2h[4:1],8,8/1h[4:1],8,
{8}5/6h[4:1],5,{4}5,{8}5/3h[4:1],5h[8:1],,4/6h[8:1],
4,5/3h[8:1],5,4/7h[8:1],4,5/2h[8:1],5,3/6h[8:1],
{4}3qq8b[4:5],{8}8,8,7,7,6,6,
5,5,6,6,7,7h[8:1],4,4,
{4}6pp1b[4:5],{8}1,1,2,2,3,3,
4,4,3,3,2,2h[8:1],,6,
7/1h,3,2/5h,4,6/3h,5,4/7h,6,
5/3,4/2,3/6,7/2,{24}1/8bx,2,3,4,,,8/1bx,7,6,5,,,{8}3/5h[8:1],
3,5,3/6,5/3h[8:1],5,4,6/3,
4/6h[8:1],4,5,3/6,5/3h[8:1],5,4,3/6,
{24}4/5,3,2,1>4[8:3],,,{8}7,7,6,6,5,5,
{24}5,6,7,8<5[8:3],,,{8}2,2,3,3,4,4,
{4}6h[8:1]/B2/B3/E3,3h[8:1]/E7/B6/B7,8bh[8:1]/1bh[8:1],2bh[8:1]/7bh[16:1],
{8}6bx/E3/B2/B3,3bx/B7/E7/B6,{4}2h[8:1]/7h[8:1],4h[8:1]/5h[8:1],6h[8:1]/3h[8:1],
{8}5/7,6,5/3,4,3/1,2,8/1,7,
8/1,7/2,6/3,{24}5/4,3/6,2/7,{4}1>4[8:1]/8<5[8:1],1b/8b,
{8}3/6,2pp4qq3[8:5],6,2,5,6,7,8h[8:1],
,6/4,3,4,2,6,5,7,
8,7qq5pp6[8:5],3,7,4,3,2,1h[8:1],
,7,3,6,{16}4,5,4,5,{8}4,3/5,
4/6-1[8:1],4,4,4,3/8-5[8:1],3,3,3,
4/6,2,5/4,7,3/5,1,8/2,7,
8/2-6[8:1],1,2/8-4[8:1],7,8/1-4[8:1],2,1/8-5[8:1],7,
8/1,3,4/6,2/8,3/5,1/7,4/2,3/5,
{24}1/8,2/7,3/6,4b-2b[16:1]/5b-7b[16:1],,,{8}6/3,5/4,1,7,2/8,6,
1,5,2,3,7,5,4,2,
7,4/6-8[8:1],7,6/4-2[8:1],3,4/5-7[8:1],6,5/3-1[8:1],
2,3/5,8,6,{4}4h[8:1],{8}6,3,
{24}5b,6,7,8,4,3,{8}2,3h[8:1]/8h[8:1],{16},,1,8,1,8,1,8,
{24}1b,2,3,4/1b,8,7,{8}6/5-2[16:1],5-8[16:1],,,2/1,8/3,
7/4,5/6,{16}4,5,4,5,3,6,3,6,2,7,2,7,
{48}D2,A2,D3,A3,{12}D4,{48}A8,D8,A7,D7,{8}A6,Cfh[8:1],{24},,,1,2,3,8/4,7,6,5,4,3,
2,1,8,7,6,5,{8}4,{16}2,1,{24}2,3,4,5,6,7,8,1,2,3,{48},,,,{16}4,
5,4h[8:1],6,,5h[8:1],{8}3,{16}6,4,5,2,8,1,7,2,
{8}6,{16}4,5,2,6,{8}3,{16}7,2,8,1,7,2,8,1,
{8}5,1h[8:1]/B6/E7,,8h[8:1]/B3/E3,{16},1,,,3,4,2,6,
5,7,2,1,3,7,8,6,2,4,3,7,5,6,3,4,
1,6,5,8,{24}2,3,4,5,,,7,6,5,4,3,2,1,8,7,6,5,4,
{8}3,3bx/4bx,8bx/7bx,2bx/1bx,5bx/6bx,{24}4/5,3/6,2/7,{4}8p4[8:1]/1q5[8:1],
1>4[8:1]/8<5[8:1],8b/1b,6h[8:1]/3h[8:1],5h[8:1]/4h[8:1],
{16}3,4,2,6,5,7,3,4,1,6,5,8,1,5,2,6,
3,7,4,8,3,7,2,6,{4}1>4[8:1]/5<8[8:1],5b/1b,
{8}3h[8:1],5h[8:1],4h[8:1],6h[8:1],2h[8:1],8h[8:1],1h[8:1],7h[8:1],
,1b/8b,7/2,3b/6b,5h[4:1]/4h[4:1],,,6/3,
{4}1-4[8:1]/8-5[8:1],1-6[8:1]/8-3[8:1],1-5[8:1]/8-4[8:1],8b/1b,
3-8[8:1]/6-1[8:1],3-5[8:1]/6-4[8:1],6-2[8:1]/3-7[8:1],6b/3b,
{8}4/8h[8:1],4,3/7h[8:1],3,2/6h[8:1],2,1/5h[8:1],1,
{16}1/8,2,3,4,8/1,7,6,5,4,3,2,1,{4}4/8,
{1}8bq7<3[2:3]/4bp2[2:3],
{8},,,,,,,,3,
5/2,6,7/4,2,8/3,7,6/1,
2h[8:1],1h[8:1],3h[8:1],8h[8:1],4h[8:1],7h[8:1],5h[8:1],6h[8:1],
,2b-8[8:1],5,2b-4[8:1],7,2b-6b[8:1],6,2b,
8,4h[8:1],7,5h[8:1],3,1h[8:1],5,7h[8:1],
4,7b-1[8:1],4,7b-5[8:1],2,7b-3b[8:1],3,7b,
1,5h[8:1],2,4h[8:1],7,8h[8:1],4,1h[8:1],
{1}7bq3q7>7b[4:23],
E1,
C,
E5,
B3,
B6,
{4}E1,{8}1,8,1,8,{16}1,8,1,8,
{24}1,2,3,4,5,6,7,8,1/5h,2/6,3/7,4/8,{8}5/1,3/7-5[8:1],3-1[8:1],7,
3,{16}4,5,6,7,8/1,2,3,4/5,6,7,{8}8,1/8h[2:1],
2,3,4,4h[2:1],8,7,6,5,
{16}5,4,3,2,1/8,7,6,5/4,3,2,{8}1,8,7,
6,2-7[8:1],6-3[8:1],2b,{4}6b,{8}2/1bh[8:1],2,
8/3bh[8:1],8,4/7bh[8:1],4,5/6bh[8:1],5,4/7bh[8:1],4,
6/3bh[8:1],6,4/2bh[8:1],4,5/7bh[8:1],5,6/1bh[8:1],6,
3/8bh[8:1],3,2/4,8bx,7/5,2bx,3/1,7bx,
6/8,4bx,{4}5h[8:1]/4h[8:1],{8}3/6,7/2,8/1,7/2,
6/3,{16}4,5,4,5,3,6,3,6,2,7,2,7,1,8,
{24}1bx,2bx,3bx,8bx,7bx,6bx,2bx,3bx,4bx,7bx,6bx,5bx,1bx,2bx,3bx,8bx,7bx,6bx,2bx,3bx,4bx,7bx,6bx,5bx,
{8}3bxh[2:1],6,5,6,5,3h[4:1],6,5,
,4/6,2b,5/3,7b,5/6,4,6,
{16}3,4,2,5,3,4,2,5,3,4,2,5,3,4,2,5h[8:1],
3,2,1,8,4,5,6,7/8,1,2,3,8,7,6,{8}5,
{16}6,5,7,4,6,5,7,4,6,5,7,4,6,5,7,4,
{8}6,5bx/7bx,6bx/4bx,5bx/3bx,4bx/2bx,1bx/B6f/B5f,{4}2h[8:1],
{16}3bx,8,3,7,3bx,6,3,5,3bx,4,3,2,3bx,1,3,8,
3bx,7,3,6,3bx,6,4,6,5bx,6,7,6,8bx,6,1,6,
2bx,6,3,5,3bx,4,3,2,3bx,1,3,8,3bx,7,3,6,
1bx,2,3,4,5/8bx,7,6,5,4/8bx,1,2,3,4/8bx,7,6,5,
4/7,8,6,1,7,8,6,1,8,1,6,2,8,1,6,3,
5,8h[8:1],{8}2,{16}1,2,8,3,8,1,7,4,8,1,6,4,
7,1,5,4,6,1,5,2,7,8,6,1,8,1,6,2,
{8}8,3/5h[8:1],3,5,6/4h[8:1],6,4/6h[8:1],4,
3,2/7h[8:1],2,7,8/2h[8:1],8,1/6h[8:1],1,
3/5,6h/2h,7/4,3h/5h,6/1,5h/2h,3/6,1h/7h,
{24}1,5,1,5,1,5,1,5,1,5,,,1/5,2/6,3/7,4/8,1,2,3,4,5/1,6,7,8,
{1}2bx>2b[2:3]/1bx-3-7-2-5-1b[2:3],
{8},,,,,,,,6/4h[4:1],
7,6,6,4/7,5,1/5h[4:1],2,
3,3,5/2,4,8/4h[4:1],7,6,6,
4/7,5,2/6h[4:1],3,4,4,6/3,5,
7/3h[4:1],6,5,5,3/6,4,6,6/3,
3/8<5[8:3],2,2/8,1,1,2,6/3>8[8:3],6,
3/8,8,7,6,{16}1,2,3,4,8/5,7,6,5,
{4}4/3h[4:3],4,4,4,
5/6h[4:3],5,5,5,
5/4h[4:3],6,5,6,
4/5h[4:3],3,4,3,
B7/B6,B2/B3,B8/B7,B1/B2,
{8}4h[4:1],5,{4}C,{8}5h[4:1],4,{4}C,
2h[8:1]/4h[8:1],7h[8:1]/5h[8:1],6h[8:1]/4h[8:1],3h[8:1]/5h[8:1],
{8}1/8,8-6[8:1]/1-3[8:1],,8b/1b,,,7/2,7-3[8:1]/2-6[8:1],
,7b/2b,,,2-5[8:1],7-4[8:1],2bx,7bx,
E
