&title=Lapis
&artist=SHIKI
&first=0.014
&des_1=For the Legend
&des_2=For the Legend
&des_3=For the Legend
&des_4=For the Legend
&des_5=For the Legend
&lv_5=14
&des_6=For the Legend
&des_7=For the Legend
&des=CupLid
&inote_5=(146){4},{1},{4},,,{16}7h[8:1]/5h[8:1],
,,6h[8:1]/4h[8:1],,,{8}5h[8:1]/3h[8:1],{16},2h[8:1]/4h[8:1],,,{8}1,1,
{16}2h[8:1]/4h[8:1],,,3h[8:1]/5h[8:1],,,{8}4h[8:1]/6h[8:1],{16},5h[8:1]/7h[8:1],,,{8}8,8,
{16}1h[8:1]/3h[8:1],,,2h[8:1]/8h[8:1],,,{8}7h[8:1]/1h[8:1],{16},6h[8:1]/8h[8:1],,,{8}5,5,
{16}8h[8:1]/6h[8:1],,,7h[8:1]/1h[8:1],,,{8}2h[8:1]/8h[8:1],{16},1h[8:1]/3h[8:1],,,{8}4,4,
{16}5h[8:1]/6h[8:1],,,5h[8:1]/4h[8:1],,,{8}4h[8:1]/3h[8:1],{16},2h[8:1]/3h[8:1],,,{8}1,1,
{16}3h[8:1]/4h[8:1],,,4h[8:1]/5h[8:1],,,{8}5h[8:1]/6h[8:1],{16},6h[8:1]/7h[8:1],,,{8}8,8,
{16}1h[8:1]/2h[8:1],,,3h[8:1]/4h[8:1],,,{8}5h[8:1]/6h[8:1],{16},7h[8:1]/8h[8:1],,,{8}1,1,
{16}7h[8:1]/8h[8:1],,,6h[8:1]/5h[8:1],,,{8}4h[8:1]/3h[8:1],{16},2h[8:1]/1h[8:1],,,{8}8,8,
{16}4,6,3,5,2,4,,4,{8}3,{16}3,5,,2,4,3,
6,4,5,3,,7,5,6,3,5,4,7,5,6,,6,
{24}1,2x,3x,4x/7,{48},,,,{16}6,4,7,3,{8}8,{16}2,1,3,8,4,7,
5,6,4,7,,2,8,2,{24}8-4[8:1],7x,6x,5x/4xpp5[4:1],,,{4}3h[8:1],
{16}2,2,,3,,3,{8}5,4/7,{24}6,5,6,{4}5q3[4:1],
{16}7,7,,6h[16:3],,,{8}4,5/2,{24}3,4,3,{4}4-7-5[4:1],
{16}1,1,,2,,2,{8}4,3/5,{24}5,4,6,{4}5<6-2[4:1],
{16}8,8,,7h[16:3],,,{8}3,4/6,{24}4,5,3,{4}4h[4:1],
{16}2b,4,3,5,4,6,,7,{8}8,{16}6,5,,7,8,6,
1b,5,2,4,,4,3,5,2b,7,3,6,4b,5,,5,
{24}1b,2,3,4/6,{48},,,,{16}7,5,6,4,{8}5,{16}3,4,2,5,1,6,
2b,7,3,8,,8,1,7,{24}2-5[8:1],3,4,5/6x-1[8:1],,,{8}2b,6b,
{16}3b,3,,4,,5,{8}3,6/2,{24}7,1,7,{4}1>4[8:1],
{16}6b,6,,7h[16:3],,,{8}4,7b/3b,{24}2,8,2,{4}8bV64[8:1],
{16}2b,2,,1,,5,{8}3,6b/2b,{24}7,8,7,{4}8bpp2[8:1],
{16}7b,7,,6h[16:3],,,{8}4b,7/3,{24}2,1,2,{4}1bh[4:1],
{16}2b,8,2,8,3,7,3,7,4,6,4,6,3,5,3,5,
1b,6,4,6,3,5,3,5,2b,6,4,6,1b,6,4,6,
8b,7,8,7,1,6,2,5,3,4,3,4,2,6,2,6,
4b,5,4,5,3,6,2,7,{24}1-5[8:1],2,3,4/7x-3[8:1],,,{8}1b,7b,
{16}4b,4,,7,,7,{8}6/8,5/1,{24}2,4,2,{4}4<6[8:1],
{16}1b,1,,3,,,{8}2/4,1b/5b,{24}6,8,6,{4}8b-4[8:1],
{16}7b,7,,8,,2,{8}3/1,4b/8b,{24}7,6,7,{4}6b-4[8:1],
{8}1b,1,2/8,3b/7b,4/6,{16}2,6,4b,7,1,5,
{1}3bV51[1:1],
6V84[1:1],
1pp5[1:1],
8-4-8[1:1],
2v3-5[1:1],
6v7-1[1:1],
2V46<8-3[1:1],
{2}E7h[2:1]/B6h[2:1]/B7h[2:1],{24}5,4x,3x,2x,1x,8x,5x,4x,3x,2x,1x,8x,
{8}3bx/7hx[2:1],3,3x,3,3x,3,3x,{16}3/A6,E6,
{8}2x/E5,2,2,2x,2/B8,2,2x,2,
7x/B3h[2:1],7,7x,7,7x,7,7,{16}7/A2,E3,
{8}6x/E4,6,6,6x,6/E1,6,6x,6,
{16}3x,5,3,5,,1,{8}1,{16}6x,4,7,5,,8,{8}8,
7x/1x,{16}2,4,,4,3x,5,4,6,,7/3,{8}7x/3x,8,
{16}2x,1,3,8,,4,6,3,5x,4,6,2,,8,1,7,
{8}6x/2x,{16}3,4,,4,3x,5,2,6,1,7,8x,6,1,5,
{4}2bx-5[8:1],{8}2/5x,6,{16}7x-4[8:1],8,,8,{8}7x,1,
2x<3[2:1],5,6,7hx[4:1],{16},,,,8x,7,6,5,
{8}4x/3x>8[8:1],2,3x/4x,5,{16}6x<1[8:1],4,,4,{8}6,3,
{4}2xv5[8:1],{8}2/6,{16}6x,7,{8}8,{16}3,7,2x,6,1,5,
2x-6[8:1],4,,4,{8}2,5,{16}7x>2[8:1],5,,5,{8}7,4,
3x/1x,{16}4,8,,1,7x,2,6-2[8:1],3,5,4,{4}6x,
{16}3x,1,2,8,1,7,8,6,3x,4,2,5,1,8,2,7,
{32}3bx,4,5,6,7,8,1,2,3,4,5,6,7,8,1,2,3bx,4,5,6,7x,8,1,2,3bx,4,5,6,7x,8,1,2,
||s1/4
{4}3/7x-3[8:1],
||s4/4
{48}E2h[1:1],B7,C,B3,{3}A3f,{4},,{16},{48},
{48}A6,E6,{24}E5h[24:23],,,,,,,,,,,{4}3,2,
{4}1>8[2:3],,,,
{48}A2,E2,{24}E1h[24:11],,,,,,,,,,,,,,,,,{8}E7,B5,
{4}A4h[1:1],,,,
{48}A7,E8,{24}E1h[24:23],,,,,,,,,,,{4}6,5,
{4}4>1[4:1],,8<5[4:1],,
{8}1b,{24}2b,3,4,{8}5x/7x,{24}7b,6,5,{8}4x/1x,{24}1b/5b,2/6,3/7,
{16}4x/8x-4[8:1],,,,
{16}8b/4b,,,,3,5,3,5,2,4,2,4,8,7,1,6,
{16}4b,7,1,7,5,6,5,6,4b,8,2,8,3b,7,1,7,
{24}A2f,E3,E4,{16}A4,,7,5,6,4,7,8,6,1,5,3,7,3,
{16}8b,4,8,4,7,3,6,2,{32}5-1[8:1],4,3,2,1,8,7,6,{16}5b/3b,,,,
{16}2b,2,,8,8,,37,,2/5-1[8:1],,{24}25,36,47,{16}58,,,,
{16}7b,7,,1,1,,62,,7/4-8[8:1],,{24}74,63,52,{16}41,,,,
{16}3b,3,,7,7,,64,,5w1[8:1],,{24}28,37,46,{16}5,,,,
{16}7b/3b,,{32}8b,7,6,5,4,,,,1b,2,3,4,5,,,,8b,7,6,5,4w8[8:1],3,2,1,8,71,62,53,
{1}4b<5-7-1-3<4[1:1]b*V68V24[1:1]b,
E
