&title=Walk Like an Egyptian
&artist=The Bangles
&first=-0.103
&des=埃及人
&clock_count=4
&wholebpm=206
&lv_6=13+
&des_6=Vak Like an Egyptian
&inote_6=(206.05)
,,,,
3<6[8:12]/6>3[8:12],,,,,,,,
2>7[8:12]/7<2[8:12],,,,,,,,
(205.3){8}
1b/8b,,2,4,4,,3,5,5,4,4,6,6,,57,,
4-1[8:1],,6,6,7-3[8:1],,1,1,1>4[8:1],,6<1[8:1],,5-1[8:1],,,,
(204.8){8}
7b,,8,8,6,6,2,2,5,3,3,5,5,,46,,
5-8[8:1],,4,4,5-2[8:1],,6,6,5-1[8:1],,3-6[8:1],,7-2[8:1],,,,
(204.9){8}
4h[8:2],,5,5,6h[8:2],,5,5,4h[8:2],,6,6,7h[8:2],,5-3[8:1],,5/6-2[8:1],,4,4-7[8:1],,1,1-5[8:1],,1/8-3[8:1],,7,7V51[8:2],,,,,
(205.3){8}
23,,8,8,1h[8:2],,7,7,6h[8:2],,8,8q5[8:2],,5<2[8:2],,,,,
7,8-5[8:1],,2,1-4[8:1],,7,,6,6v4[16:3]/4V28[16:3],,,,,
(205.5){8}
5h[8:2],,4,4,3h[8:2],,4,4,5h[8:2],,3,3,2h[8:2],,6z2[8:2],,3,,4,4,,8,1v4[8:1]/7v4[8:1],,,,3-5[8:1]/6-2[8:1],,,,8-4[8:1],,
(206.6){8}
2<7[8:1]/8,,6>3[8:1],,1s5[8:2],,7,7h[8:3],,,,4p5[8:3]/8p1[8:3],,,,,
(206.7){8}
,,7,7h[8:2],,5,5,,4h[8:1]/6h[8:1],,5h[8:1]/3h[8:1],,4h[8:1]/7h[8:1],,5h[8:1]/2h[8:1],,
(206){8}1>4[8:1],,1,8,7>2[8:1],,7,6,5<8[8:1],,5,4,3<6[8:1],,2V84[8:3],,,,5V37[8:3],,,,8V62[8:3],,,,3V15[8:3],,,,6V48[8:3],,,,1V73[8:3],,,,4V26[8:3],,,,7V51[8:3],,,,2,,28,2,37,,28,2,37,,6,5,4,3,4,5,62,,
(206.4){8}
4h[4:4]/5h[4:4],,,,,,,,,,,,,,,,4>5[8:11]/5<4[8:11],,,,,,,,,,,,,,,,
(206.2){8}
8b/1b,,7,5,5,,6,4,4,5,5,3,3,,42,,
5-8[8:1],,3,3,2-6[8:1],,8,8,8<5[8:1],,3>8[8:1],,4-8[8:1],,,,
(206){8}
2b,,1,1,3,3,7,7,4,6,6,4,4,,53,,
4-1[8:1],,5,5,4-7[8:1],,3,3,4-8[8:1],,6-3[8:1],,2-7[8:1],,,,
(206.1){8}
5,,46,,3,3,5h[8:2],,2,,14,14,,3<6[8:1]/6-3[8:1],,,,,75,7/5>2[16:2],,
8,8<5[16:2],,2-7[8:1],,2,6-3[8:1],,6,2,,
(205.8){8}
1h[8:2],,3,3,4h[8:2],,2,2,1h[8:2],,4,4<2[8:3],,,2q8[16:3],,,,3,3V52[8:2],,6,6,,7,,38,8V61[8:2]/3V52[8:2],,,,,
(206.2){8}
7-4[8:1],,1-5[8:1],8,7-4[8:1],,1-5[8:1],8,7-4[8:1],,1-5[8:1],8,7-4[8:1],,3-8[8:1],,5,,67,67,,23,23,,18,,45,45,,18,1-5[8:1]/8-4[8:1],,
(206){8}
,,3,3,2h[8:2],,4,4,5h[8:2],,3V17[8:2],,6V82[8:2],,,,5-7[8:1],,4,4,3-1[8:1],,4,4,5-7[8:1],,8-4[8:1],,1-3[8:1],,,,
(205.5){8}
7b/8b>3[8:1],,8,7,6<1[8:1],,6,5,4<7[8:1],,4,3,2>5[8:1],,1V73[8:3],,,,
4V26[8:3],,,,7V51[8:3],,,,2V84[8:3],,,,5V37[8:3],,
(206.5){8}
,,8V62[8:3],,,,3V15[8:3],,,,6V48[8:3],,,,1,,17,1,26,,17,1,26,,
4,4,3/5,35,2/6,26,17,,
2q3[8:15]/6q7[8:15],
