&title=Calc
&artist=星乃一歌 anvo
&first=0.04
&des=
&des_5=Yui
&lv_5=13.9
&inote_5=(173){4},,,,{1}2h[2:3]
,
{4}E2,E3,E4,E5
,
{1}6h[2:3]
,
{4}E8,E7,E6,E5,
3/8,4/8,3/7,4/7,
6/3,6/4,5/3,5/4,
{8}2,2,4,4,5,5,7,7,
{16}3,5,4,5,{8}3,{16}7,6,{8}5,1,{4}8/1-5[8:1],
1b/8b,6-4[8:1],{8}1,2,{4}3h[4:1],
7<4[8:1],7/3,{8}3-8[8:1],5,{4}3,
6<8[8:1],5/6,{8}1q5[8:1],7,{4}1,
8-4[8:1],{16}8/3,,,3,{8}5,6/4,{4}6/4,
{8}2-5[8:1],2,7-3[8:1],7,4-1[8:1],4,8-5[8:1],8,
3>8[8:1],3,6-1[8:1],6,4-8[8:1],4,6,6,
{16}1,7,1,7,2,6,2,6,3,5,3,5,4,6,4,6,
1,7,3,7,1,7,3,7,2,6,4,6,2,6,4,6,
{4}1>4[8:1],{8}7,6-1[8:1],,6,5,4,
3,2-8[8:1],,2x/6x,{4}5h[4:1],{8}2-5[8:1],1,
2,8-4[8:1],1,8,1-5[8:1],8,1,7-4[8:1],
8,7/1<6[8:1]*>4[8:1],,1b,,,5/3,6/2,
{4}7/1>5[4:1],5-2-8[4:1],8<4[4:1],4p1[8:3],
{8}8h[4:1],,,7,{4}6>3[8:1],{8}6/8,1,
2V86[4:1],3,4,5,{4}5,{8}3,3,
4,{16}6,5,6,5,6,5,{4}6b-1[8:1],6x/4x-7[8:1],
4x/2x,{8}3-8[8:1],4/5,{4}3,{8}6qq6[4:1],5,
{4}4x/6x<4[8:3],{8}2,2,,1,2,3/5,
4,5/6,7,8/1,{4}2>5[8:1],{8}2/7-3[8:1],8,
7/4,5>1[16:3],,5x/6x,{4}7,{8}7/8,5/6,
4/3,{16}2,8,{8}1h[8:1],2h[8:1],3h[8:1],4>1[8:1],3,{24}4/8x,7x,6x,
{4}5xh[4:1],{8}E2,6/E4/B4/B3,,2/1,3/8,4/7,
{4}6/5-2[8:1],5-8[8:1],5>2[8:1],5bqq8[2:1],
,D2/A1/E2,E3/A3/D3,A4/E5/B4,
3/7b-4[8:1],1,5/8>3[8:1],7,
2/1<5[4:1],5>1[4:1],1<5[4:1],{8}4,3,
{4}2q6[8:1],7<4[8:1],1-7-3[8:3],6h[4:1],
,7-3[8:1],1>4[8:1],1/5,
7b/3b>8[8:1],5,2/6v1[8:1],4,
7/5>1[4:1],1<5[4:1],5>1[4:1],{8}8,7,
{4}6-2[8:1],{8}6/5,4h[4:1],,7,6/3,2-5[8:1]/5-8[8:1],
,,,,3/5,3/5,{16}2,4,3,4,
{4}2-8[8:1]*-4[8:1],2,7-4[8:1],7/3-8[8:1],
3/6-2[8:1],6/1>4[8:1],8x/1xV75[4:1],5V31[4:1],
1V75[4:1],{8}4,3,{4}2-8[8:1],2>4[8:1]/7<5[8:1],
2/7>2-6[4:1],{8}2,3,{4}4h[8:3],{16}3,2,1,8,
{8}3/7-5[8:1],3,3/7-1[8:1],3,3/7,4,5-1[8:1],1<7-3[4:1],
{4}5,{8}6,6h[4:1],,3,4,5,
{4}6-1[8:1],{8}5/6,4-8[8:1],,4/5,6,7,
2/8,{16}3,4,{8}3,{16}5,4,{8}5,{16}3,4,3,4,2,4,
{8}2b,1,8,7-4[8:1],,7/4,3,2-6[8:1],
,1/2,8,7<4[8:1],,7x/1,2,3-8[8:1],
,3x/7,6,5-1[8:1],,2/5x,3,4,
7/5,6,5/1,3,8/4,6,{4}8b/1b,
{8}1/2,3,4-8[8:1],4,5,6,6-1[8:1],1-5[8:1],
2,3,4-2[8:1],4,6-4[8:1],6,{4}1,
{12}3x,4x/5x,3x,4x/5x,3x,4x/5x,2x,3x/5x,2x,3x/5x,2x,3x/5x,
1x,2x/5x,1x,2x/5x,1x,2x,{2}3x-5[8:1]*-7[8:1],
6xh[1:1],{8}4,,,5,
{4}5qq1[2:1],6,{8},,6,7,
{4}8>3[4:1],3<6[4:1],6<1[4:1],1,
,7/B2h[4:3]/E2h[4:3],6,5,
{2}4q1[2:1],{8}B4,,,5,
{4}5>1[4:1],1>5[4:1],{8},,7,7,
{4}7p3[4:1],{8}2,2>5p1[2:1],,E8/D8,{4}E7/D7,
,2/7h[2:1],3,4p2[4:3],
{2}E6/A6/D6,Ch[4:3],
{4}A1,8>3[4:1],,5-1[4:1],
1>4[4:1],4-8[4:1],8<5[4:1],{8}4v7[4:1],4h[8:5],
,,,,{4}A7,3/A6,
{2}2/5qq5pp5[4:3],2xh[2:1],
{4},D2/E2/5-1[8:1],{8},,3,3,
{4}2-5[8:1],{8}6,7<4[8:1],,3,2,1,
1b/8b,1b/8bw4[8:1],,,,,,,4b-2[8:1],
4,8-6[8:1],8,3-1[8:1],3,7-5[8:1],7,
2-8[8:1],2,{16}6,5,4,3,2,1,8,7,{8}6/2-5[8:1],4,
2/1,8-4[8:1],7-3[8:1],8,7,1qq5b[8:3],2,3h[4:1],
,,3,3,{16}8,2,7,3,6,4,5,3,
{8}4b<6[8:1],4,8>2[8:1],8,5<7[8:1],5,1>3[8:1],1,
6<8[8:1],6,{16}2,3,4,5,6,7,8,1,{8}2/6<1[8:1],3,
{4}6/4-7[8:1],{8}4/3,2-5[8:1],,2/1,8,7,
6,{16}2,1,{8}2,{16}7,8,{8}6,{16}2,4,3,5,4,6,
{8}5-2[8:1],5,1-6[8:1],1,3-8[8:1],3,7-4b[8:1],7,
1>4b[8:1],1,{16}5,6,7,8,1,2,3,4,{8}5/1,2,
3b/5b,{16}2,1,{8}2,3/5,6b/4b,{16}7,8,{8}7,5,
6/4,5/3,4/7,2/5,{2}3/8w4[8:1],
{8}2,{16}6,5,{8}7,8,{16}1,4,2,5,{8}3,1,
2/8,{16}7,8,{8}7,6,{16}3,5,3,5,{8}1,2,
{32}3,4,5,6,7,8,1,2,3,4,5,6,7,8,1,2,3qq5[1:1],4,5,6,7,8,1,2,{4}3b/6bpp4[4:3],
{1},{4},,{8},{16}3,
3,{4}5,
{8}2/5-1[8:1],2,2/5,2,2/3-6[8:1],2,2/3,2,
3/7-4[8:1],3,3/7,3,3/2-6[8:1],3,3/2,3,
5/4-1[8:1],5,5/4,5,5/2-6[8:1],5,5/2,5,
5/6bx,5,5/7b,5,5/8b,5,5/1b,5,
5/2,{16}3,4,{8}3x,{16}6,4,{8}6x,{16}3,5,{8}3x,{16}5,5,
{8}4x,{16}7,8,{8}7x,{16}2,1,{8}2x,{16}6,6,{8}5x,{16}2,4,
3b,,,5b/2,,,{8}4b/7,{16},5b/1,,,{4}3b/7h[4:1],
{16}2,6,3,7,4,8,3,7,2,6,1,5,8,4,7h[8:5],3h[16:9],
{32},,,,,,,,,,,,,,,,,8/4,5/1,6/2,{8}3>8pp4[8:29]/7<4pp8[8:29],{1},,,,{16},1s5[16:3],
E
