&title=我ら!ゴミ分別団
&artist=かてらざわ/重音テト
&first=0
&des=Yoru MK
&lv_5=13
&des_5=Yoru MK
&inote_5=
(166){4},,,,1>4[8:1],
1<6[8:1],1-4[8:1],1-6[8:1],
1-5[4:1],1bw5[8:3],{2}1b,
{4}4>1[8:1],4<7[8:1],4-1[8:1],4-7[8:1],
4-8[8:1],4bw8[8:3],{2}4b,
{4}B7/B6/E7,B2/E3/B3,B8/E1/B1,B5/B4/E5,
B7fh[4:3]/B6fh[4:3],B3fh[2:1]/B2fh[2:1],,Cf,
4bx-7[8:1],5bx-2[8:1],8bx-3[8:1],1bx-6[8:1],
{16},,,,,B7/B6/B2/B3/Ch[16:9],,,,,,,,,,,,,,,{4}4/5xh[2:1],
4,4,
4-1<8-5[4:1],4/5,6z2[4:1],2z6[4:1],
{8},,7-2[4:1],8,7/3-6[4:1],4,{4}3,
{8}1-5[4:1],2,1w5[4:1],8,{2}1x,
{4},5/4h[2:1],5,5,
2-7[4:1]/7-2[4:1],6-3[4:1]/3-6[4:1],,,1-5[8:1],
1/5-1[8:1],5/8-4[8:1],8/4-8[8:1],
4,Cfh[8:0],{8},,,5h[4:1],
,4b,{4}5b<8b[8:1],5b>2b[8:1],{16}5-8[8:1],,,5b-2[16:1],
,,,,,,{8}1b,{16},2,,,3-6[8:1],,,6-4[16:1]*-8[16:1],
,,,,,,,,{8}B8/B7,B6/B5,B1/B2,B3/B4,
,8bx-5[8:1],,B1/B2,B3/B4,B8/B7,{4}B6/B5,
1xh[16:1],5x-3[8:1],5bx-7b[8:1],{16}5x-2[8:1],,,5bx-8b[8:1],
,,,,,1b,,,2b,,,6b-3b[8:1],,,{8}3-5[16:1]*-1[16:1],
{16},,,,,,,,E5h[16:11],,,B6,,,,B3,
,,,C,,,,,{2}E8/E1/E2/B2/C/E5,
{4}7bx-5[8:1]/1x-3[8:1],7bx/1x,8bx-6[8:1]/2x-4[8:1],8bx/2x,
7bx-5[8:1]/1x-3[8:1],7bx/1x,2x-4[8:1]/8bx-6[8:1],8bx/2x,
8bx,8<4[4:1],4b>8b[4:1],8<4[4:1],
4b>8b[4:1],8<4[4:1],4b>8b[4:1],8<4[4:1],
3bx,3,3/4-6[8:1],4/3-8[8:1],
3/4-7[8:1],4/3-1[8:1],3/4-6[8:1],3/4,
{8}2-7[8:1],2,{4}2,{8}6-3[8:1],6,{4}6,
{16}E4,B3,B2,E2,E6,B6,B7,E8,E8,B8,B1,E2,E6,B5,B4,E4,
,,,,{4}4/5h[2:1],4,4,
{8}6-3[4:1]*>3[4:1],3,{4}6,,3>1[8:1],
1q2[4:1]*<7[4:1],,,5/6-3[8:1],
6/1-4[8:1],1/5-8[8:1],5/6-3[8:1],6/7-2[8:1],
7/8bx,8s4[4:1]/1z5[4:1],{2}8/1,
{4}5<1[4:1],1b>5b[4:1],5<1[4:1],1b>5b[4:1],
5<1[4:1],1b>5b[4:1],5<1[4:1],3bx,
2bx,1bxh[8:1],{8},B7/B6,B2/B3,5h[4:1],
,4,{4}3/5-7[8:1],3b-1b[8:1],{16}5b,,,6-3[16:1]/2-7[16:1],
,,{8}2/6,,4,{4}8,{8}1pp4[4:1]/8qq5[4:1],1/8,
,,,,B1/B2,B3/B4,B8/B7,B6/B5,
,4-1[8:1],,,B8/B7,B6/B5,B1/B2,B3/B4,
{4}E8/E1/E2/B2/C/E5,4-1[8:1],5b-8b[8:1],Ch[2:1],
{8},,,2bx,{4}7bx,8bs4b[4:1]/1bz5b[4:1],
{8},,,,B8/B7,B6/B5,B1/B2,{16}B3/B4,5h[4:1],
,,,,,,{8}B1/B2,B3/B4,B8/B7,{16}B6/B5,,,4<8[8:1],
,3,,4/8<5[8:1],,,,,{4}1,1/2,
3/8,4/7,6/5-2[8:1],5/6-1[8:1],
6,1>5[4:1],5b<1b[4:1],1>5[4:1],
5b<1b[4:1],1>5[4:1],,,4/3-1[8:1],
3/4-6[8:1],4/3-8[8:1],3/4-7[8:1],
3/4>1[8:1],{32}6/4<7[8:1],D4,A3,A2,{8}D2,{32}3/4w8[8:1],D5,A5,A6,{8}D7,{32},B4,C,B8,{8}A8,
{4}3/4,{8}3/4-6[8:1],5,4/3-8[8:1],2,3/4-7[8:1],5,
4/3-1[8:1],2,{4}3/5,,6>3[8:1],
,5/4h[2:1],5,5,
3/5-3-6-2-7-1[2:1],3,3,3,
{8}1/8-5[8:1],7,8/1-4[8:1],2,1/8-5[8:1],7,8/1-4[8:1],2,
1/8-5[8:1],7,8/1-4[8:1],2,1/8-5[8:1],7,{4}1bx,
,5/4h[2:1],5,5,
{1}8qq5[2:1]/2v4-1[2:1],
{4}2xh[16:1]/6xh[16:1],7xh[16:1]/3xh[16:1],2xh[16:1]/6xh[16:1],7xh[16:1]/3xh[16:1],
6xh[16:1]/2xh[16:1],3bx/7bx,B7/B6,{8}B3/B2,4h[8:1],
,,{4}5<8[8:1],5>2[8:1],{16}5-8[8:1],,,5-2[16:1],
,,{8}5w1[4:1],,,,,{4}5bxpp5b[8:1],
{8}4bxh[8:1],{16},,,,B8,B7,B6,B5,B4,B3,B2,B1,B8,Ch[4:1],
,,,,,,{8}B1/B2,B3/B4,B8/B7,{4}B6/B5,
3b,1bxw5b[8:1],,,{2}1bxw5b[8:1],
{4}1bx-5b[8:1],1bxw5b[4:1],
{2}1bx,{8}B8/B7,B6/B5,B1/B2,B3/B4,
,,B1/B2,B3/B4,B8/B7,B6/B5,{4}8<4[4:1],
4b>8b[4:1],8<4[4:1],4b>8b[4:1],8<4[4:1],
4b>8b[4:1],8<4[4:1],4b>8b[4:1],8V24[4:1],
4bV68b[4:1],8V24[4:1],4bV68b[4:1],8q4[4:1],
4bq8b[4:1],8q4[4:1],,,8p4[8:1]/4p8[8:1],
4<8[8:1]/8>4[8:1],8p4[8:1]/4p8[8:1],4<8[8:1]/8>4[8:1],
8p4[8:1]/4p8[8:1],4<8[8:1]/8>4[8:1],{2}8p4[8:1]/4p8[8:1],
{4}1,1/2-4[8:1],2,3/5-2[8:1],
6/5-8[8:1],1/5-1[8:1],5w1[8:1],5bx,
2/8,3/7,4/6,6>2>6[4:3],
6,B7/E7,E1/B8/B1,B2/E3,
6-8[8:1],6/8-4[8:1],8/3-1[8:1],3/1-5[8:1],
1/5>2[8:1]*<8[8:1],5w1[8:1],,B5/B4/B2/B3/Cf/B1/B8/B7/B6,
1-5[8:1],2-6[8:1],3-7[8:1],8,
1,7-3[8:1],6-2[8:1],5-1[8:1],
8,2,3,4/6>3[8:1],
6/3<6[8:1],6>7[1:1],,,,,,C,
{16}C,5w1[8:39],,,{4}C,C,C,
C,C,C,C,
C,C,C,C,
C,C,C,C,
C,C,C,C,
C,C,{2}C,
E
