&title=チェリーコークにペパーミント
&artist=Ingen
&first=0.029
&des=ソーダフロート
&lv_5=14
&lv_6=13+
&inote_6=(150)
{4},,,,
{48}5,,,,,,,,3,,,4,,,3,,,,,6,,,,,6,,,,,,,,3,,,4,,,3,,5,,,,,,,,,,46,,,,,,7,,4,,5,,2,,,,,6,,,,6,,,,,,{32}1,2,3,4,5,6,7,8,1,2,3,4,{48},,{128},
{8}7h[8:1],5h[8:1],6h[8:1],4h[8:1],{48}5,,,,,,,,,6,,,{24}5,,3,4,,,
2,,1,2,,1,2^5[8:1],,,8,,,7h[4:1],,,,,,
5,,5,7,,7-5[32:3],,,2-4[32:3],,,7-1[32:3],,,2,,,7,,,{16}3,3,8,8,
{24}2h[8:1],,,1,2,,4,3,,7,8,,6h[8:1],,,5,,,34,,,7,5,,5,6,,,
{8}2h[8:1],4h[8:1],3h[8:1],5h[8:1],{48}4,,,,,,,,,3,,,{24}4,,6,5,,,
7,,8,7,,8,7p3[8:1],,,1,,,2h[4:1],,,,,,4,,4,3,,,
6h[6:1],,,1,2,3,6h[6:1],,,1,2,3,6h[6:1],,,2,3,4,7-4[8:1],,,56,,,7/4b<1[16:3],,,,,,
3,,,{96},,,,,{16}2h[96:30],,,4,,5,,6,,
{16}3^8[8:1]/7,,,,5,,,4pp7[4:1],,,,,,,1,,
2<7[8:1],,,,4,4,,3h[24:5],,{24},,8,1,8,1,8,1,,{48},,,
{16}7,,65,,4,,3,,2h[16:3],,,1,,,3,4,3,25,,,78,,78,,1-5[8:1]/6,16,,,4,,2,,
8^3[8:1],,,,5,,,7qq8[4:1],,,,,,,4,,3q7[8:1],,,,1,,2>6[8:1],2^8[32:3],,,,,,,,,
7,,56,,{16}2,4,3,,6,,87,,2,,1,3,
{24}7,,5,6,,,{16}34,25,,{48},{24}7,8,1,4,3,2,6,7,8,5,4,3,,{256},,,
{8}7h[8:1],5h[8:1],6h[8:1],4h[8:1],{48}5,,,,,,,,,6,,,{24}5,,3,4,,,2,,1,2,,1,2,,,8,,,
3,,7,5,,2,4,,6,5,,47,,,18,,,3,4,,25,,,1,8,,4,5,,4,,,6,5,,3,4,,25,,,6,57,,,82,,,1,2,3,7,6,5,8,,8,,,,
{8}2h[8:1],4h[8:1],3h[8:1],5h[8:1],{48}4,,,,,,,,,3,,,{24}4,,6,5,,,7,,8,7,,8,7>3[8:1],,,1,,,5h[4:1],,,,,,4,,,4,,,
4,3h[6:1],,,,5,4,3h[6:1],,,,6,5,3h[6:1],,,,7,6,3h[6:1],,,,8,7,3h[6:1],,,,1,8,3h[6:1],,,,2,2,,,3,,,1,8,7,6,7,8,
1,,,35,,,6,,4,6,,4,7,,,7,,3,5,,2,1,,4,5,,
8,7,,1,6,,8,7,,2,5,,3,4,,3,,,6,5h[8:1],,,7,,47,,,
2,1-3[32:3],,7,8-4[8:1],,,1^6[8:1],,,8,,,1,,,,,
8,,,2,4,,3,5,,4,6,,5,7-3[8:1],,2,1-5[8:1],,,7,,,1,,,
6,,7,4,,6,5,,4,5,,6,5,,3,4,,2,5,,3h[8:1],,,4,4,,,
2,,5,3,,6,,,5,7-1[32:3],,,8/2v5[8:1],,,7,,,2,,,
{16}6,6h[8:1],,5,7,4,3,6,{24}2,4,3,7,5,6,{16}1,28,,4,3,,54,,67,,18,,{24}2,3,4,5,4,3,2,1,8,7,8,1,
2-4[32:3],,,7-5[32:3],,,2-8[32:3],,,7,,,2,,,6,,8,7,,4,5,,,3,,1,2,,5,4,,,6,,,57,,,
7,8,1,2,3,4,5,,,{16}8,8,,7,7,,6,6,,5,5,,34,,{24}2,,1,2,,,13,,,{16}65,47,,18,2/7-3[10:1],,4>1[10:1]/5,,7,,4,,
6,6,,5,{24}7pp8[6:1],,6,{16}8,,3,,,{48}5>2[8:1],,,{256},,,,,,,,,{16},8-6[10:1],,5,,8q4[9:1],,1,,8,,{48},{16}6h[8:1],,5,5p1[8:1],,74,,
{24}6b,,,,,8,,2,1,,3,7,,,{24}6h[8:1]/4,,,3,,4,2h[8:1],,,6,,,{16}17,17,,53,53,,26,,8,4,4,8,4,4,8,,1,,{48},
{16}7,5,7,{10}5h[10:1],{24}6,6h[24:1],,,5,5h[24:1],,,6,6h[24:1],,{128},,,,,,,{24}74,,,,6,4,{24}5,{16}5,6,,5,6,3,4,3h[8:1],,{48}4h,,,,,,,,,
{24}25,,,3,4,3,{16}4,,5,2b,,2b,,2b,6,3,5,{24}3,4,2,4,3,5,2,4,2,{16}5b,,,5b,4,6,4,,1,1,{64}28,,,,,,,,,
{24}4,3,6,5,,,6,,{45}4,,5,,4,,7,,6,,7,,3,,4,,3,,6,,5,,{28}6,4,5,{16}4,,1,8,8,1,{256},,,,,,,,,,,,,{48}7,4,6/5,,,,,,,1,,,,,,{16}56,47,,5,
2b/6,,{8}8,78,68,85,84,38,28,18,26,18,47,56,43,67,31,
{16}2<6[6:1],,,,5,,,3h[4:1],,,,4,3,,16,,
8V25[16:3],,,,4,,,6h[16:3],,,{48}4,3,,,,,7,8,,,,,3,2,,,,,
{16}5^7[8:1],,1q2[4:1],,,,,,8,,,7h[16:3],,,
2,2,5,5,,3,43,,18,,7,,2,1,3,,84,,
5qq5[16:3]/6,,,,8,,,7h[8:1],,4,,56,56,,4,5,,
{256},,,,,,,,,,,,,,3b^1[10:1],,,,,,,,,,,,,,,,,,,,,,,,,,,,,,,,,,,,,,,,,,,,,,,,,,,,,,,,,,,,,,8bq4[8:1],,,,,,,,,,,,,,,,,,,,,,,,,,,,,,,,,,,,,,,,,,,,,,,,,,,,,,,,,,,,,,{4}5b<3[4:5],,,,,,,{16},,,{24},{96},,,
{16}8,,7,,6,,25,,3,,{24}6,,4,{16}8,,1,,7,,64,,1,8,{96},
{24}2,,4,3,,,{16}65,74,,{48},{24}2,1,8,5,6,7,3,2,1,4,5,6,,
{16}2h[8:1],,3h[8:1],,4h[8:1],,5h[8:1],,{48}3v8[10:1],,,,,,,,,4,,,{24}3,,,6,,,
6,,1,8,,1,8q4[8:1],,,2^8[10:1],,,3,,,,,,6,,,7,,,
{16}5h[8:1],,4h[8:1],,3h[8:1],,2h[8:1],,{48}4^7[8:1],,,,,,,,,2,,,{24}4,,,3,,,
3,,8,1,,8,1-4[8:1],,,7V16[32:5],,,6,,,,,,3,,,3,,,
{16}7h[8:1],,6h[8:1],,5h[8:1],,4h[8:1],,{48}6v1[10:1],,,,,,,,,5,,,{24}6,,,3,,,
3,,8,1,,8,1p5[8:1],,,7^1[10:1],,,6,,,,,,4h[4:1],,,,,,
{16}5-1[16:1],5-8[16:1],2-5[16:1],2-6[16:1],,,,,,,7,1,4,4,2,6,,{64}7b^2[8:1],,,,,,,,,,,,,,,5b^2[10:1]*^2[10:1],,,,,,,,,,,,,6q2[32:5]*q2[32:5]`6?p2[32:5],,,,,,,,,,,,,,,,,,,,,,,,,,,,,,,,,,,,
{32}6,5s1[8:1],4z8[8:1],3,
