&title=かなしばりに遭ったら
&artist=あばらや/歌愛ユキ、ナースロボ_タイプT
&first=0
&des=彷徨うYY/Y
&lv_5=14
&inote_5=(154)
{1},,
{4}5bpp1[4:6]/4xh[2:1],,,,3xh[2:1],,,,2bpp5[4:6]/8xh[2:1],,,,7xh[2:1],,,,
6bqq3[4:6]/3xh[2:1],,,,2xh[2:1],,,,1bs5[4:3]/5xh[2:1],,,,C,,,,
{16}5/3,,,,5/3,,,,2h[16:3],,,3h[16:3],,,4h[8:1],,5,,4,,3/6,,,,2h[16:3],,,4h[16:3],,,5,,
4/6,,,,4/6,,,,7h[16:3],,,6h[16:3],,,5h[8:1],,4,,5,,6/3,,,,7h[16:3],,,5h[16:3],,,4,,
5/3,,,,5/3,,,,2h[16:3],,,3h[16:3],,,4h[8:1],,5,,4,,3/5,,,,2h[16:3],,,4h[16:3],,,5,,
4/6,,,,4/6,,,,7h[16:3],,,6h[16:3],,,5h[8:1],,4,,5/3,,6h[4:1]/2h[4:1],,,,,,,,,,,,
{16}1>4[8:1],,,,4/1,,5,,7V15[16:3],,,5,7,,3,,2h[8:1],,4,3,4,3,4,3,5-1[8:1],,,6,5,,7,,
{16}8<5[8:1],,,,5/8,,4,,2V84[16:3],,,4,2,,6,,7h[8:1],,5,6,5,6,5,6,4-8[8:1],,,3,4,,2,,
1q5[8:1],,,,5/1,,6,,7-4-8[16:3],,,4,7,,3,,2h[8:1],,1,2,1,2,1,2,8>3[8:1],,,7,8,,6,,
5qq6[8:2],,4,,5,,,,,,2>5[8:1],,1,,8h[8:3]/2,,,,6x,,1,,2,,4-8[8:1]b,,,,3/4,,,,
{8}7xh[4:6],,E7,,,,E7,,,,E7,,5-3[12:1],,E7,,2xh[4:6],,E3,,,,E3,,,,E3,,4-6[12:1],,E3,,
7x,7xh[8:1],5,5h[8:1],3,3h[8:1],1,1,7/8,5/6,4/3,2/1,
{16}8,8,2,2,6,6,4,4,
{16}5h[4:2],,,,,,,,,,,C,,,,,
D7,D6,D5,D4,E7,E6,E5,E4,B7,B6,B5,B4,C,,,,
{8}1b>4[8:1]/4b<7[8:1]b,,4q5[4:1]/1,,8x,,7,7bp3[8:1],
{16},,7b/3b,,,2b,,,1-5[8:1],,8,,1,,,,
7b-4-8[4:1]/4b>1[8:1]b,,,,7/4,,,,2-6[8:1],,,,6,,5b<8[8:1],,,,5b/4b,,,3b,,,1,,3/5,,2/6,,,,
{8}8b<5[8:1]/5b>2[8:1]b,,5p4[4:1]/8,,1x,,2,2bq6[8:1],
{16},,2b/6b,,,7b,,,8-4[8:1],,1,,8,,,,
2b-5-1[4:1]/5b<8[8:1]b,,,,2/5,,,,7-3[8:1],,,,3,,4b>1[8:1],,,,4b/5b,,,6b,,,7,,3/5,,6/1,,,,
{8}2b-5[8:1]/5b-8[8:1]b,,5qq1[4:1]/2,,7,,6,6b>3[8:1],
{16},,6b/3b,,,2b,,,1>4[8:1],,8,,1/7,,,,
5bpp4[4:1]*b>2[8:1]b,,,,5,,,,1x<6[8:1],,,,5,,4b>1[8:1],,,,5b/4b,,,7b,,,6,,5/4,,6/2,,,,
{8}7b-4[8:1]/4b-1[8:1]b,,4pp8[4:1]/7,,2,,3,3b<6[8:1],
{16},,3b/6b,,,7b,,,8<5[8:1],,,,8/1,,,,
4bqq5[4:1]*b<7[8:1]b,,,,4,,,,8x>3[8:1],,,,4,,5b<8[8:1],,,,4b/5b,,,3b,,,2-4[12:1],,6-8[12:1],,2-6[8:1],,6V82V46[8:27]b,,
{4}2,,C,,,,C,,,,C,,,,C,,
{4}5-8>1-4<5[4:6],,E3/B2/B3,,,,E7/B6/B7,,6-3[4:3],,C/B1/B8,,1s5[8:3],,,,
{16}6h[4:1],,,,4h[4:1],,,,6h[16:3],,,5h[16:3],,,4-7[8:1],4,,,2-5[8:1],,2,,,,6h[16:3],,,4h[16:3],,,5,5,
{16}3-5[12:1],,,,6,,,,7,5,6,5,7,5,6,5,7-4[8:1],,8,,2<7[8:1],,3,,5-1[8:1],,6,,2-5[8:1],,3,,
7-4[12:1],,,,3,,,,2,4,3,4,2,4,3,4,2-5[8:1],,1,,7>2[8:1],,6,,4-8[8:1],,3,,6,,7,,1-3[12:1]b,,8-4[8:1],,1-5[8:1]b,,8-6[12:1],,1,,8,,,,,,
{16}3h[8:4]/7h[8:4],,,,,,,,,,6,,5/4,,3/4,,
2pp1[4:1],,,,5/2,,,,7<4[8:1],,,8,7,,1,,2h[8:1],,3,2,1,2,8,2,7p3[8:1],,,3,7,,2,,
1V35[16:3],,,,1/6,,,,8<5[8:1],,,2,8,,4,,3h[8:1],,4,3,2,3,1,3,8>3[8:1],,,7,8,,6,,
6qq7[4:1],,,,4/6,,,,2>5[8:1],,,1,2,,8,,7h[8:1],,6,7,8,7,1,7,2q6[8:1],,,6,2,,7,,
8-4[8:1],,,,1h[4:1],,,,,,5,,4,,3h[8:1]/7h[8:1],,,,2>5[8:1],,5p1[8:1],,2,,8-3[8:1],,7-4[8:1],,8,,7,,,,,,
{4}5v7<4[4:4]/1bv3>8[4:4]b,,,,,,D2f/A1/A2/E2,
{32}5b>2[8:1],6,7,8h[32:5],
{16},,5pp4[4:1],,6,,5/1xh[8:1],,,1xh[8:1],,,2x,,3-8[8:1],,8,,3-6[8:1],,6,,3-7[8:1]b,,7,,3,,,,8b-5[8:1]*-3[8:1],,,,8b,,,,4,4,4,4,4,,3/5,,2,4,3,4,1-5[8:1],4,3,4,1V75[8:1]b,,7,,1/2,,,,
{32}1b<6[8:1],2,3,4h[32:5],
{16},,1pp8[4:1],,2,,1/5xh[8:1],,,5xh[8:1],,,6x,,7<4[8:1],,4,,7>2[8:1],,2,,7-3[8:1]b,,3,,7,,,,
{16}1xb,8x,7x,6x,5x,4x,1xb,8x,7x,6x,5x,4x,8xb,1x,2x,3x,4x,5x,8xb,1x,2x,3x,4x,5x,
1h[128:1],5h[128:1],1h[128:1],5h[128:1],2-7[8:1]b/6-3[8:1]b,,,,
{16}2b/6b,,,,1>4[8:1],,5,5,1-5[8:1],,7,,1>4[8:1],,6,6,1-5[8:1],,8,,1>4[8:1],,7,7,1-5[8:1],,8,,1,,7,7,
{32}4b<7[8:1]b,3,2,1h[32:5],
{16},,4b,,1-6[8:1],2,3-8[8:1],,1,,3,,7,,1,5,2,4,3,,8,4,7,5,6,,7b-2[8:1]b/3b-6[8:1]b,,,,
{16}7b/3b,,,,8<5[8:1],,4,4,8-4[8:1],,2,,8<5[8:1],,3,3,8-4[8:1],,1,,8<5[8:1],,2,2,8-4[8:1],,1,,8,,2,2,
7xb,6x,5x,4x/3x,2x,1x,7xb,6x,5x,4x/3x,2x,1x,8xb,7x,6x,5x/4x,3x,2x,8xb,7x,6x,5x/4x,3x,2x,
8h[128:1],1xh[128:1],7h[128:1],2h[128:1],3b/6b,,,,
{16}7b-4[8:1]/4b-8[8:1],,,,4<1[16:3]/7,,,,2,,,,3,,3bqq4[4:1],,,,4b/3,,,,5-1[8:1],,7-4[8:1],,5,,7,,,,
2b>5[8:1]b*<7[8:1]b,,,,2pp1[4:1],,,,6x/2,,,,7,,7bv6-4[4:1],,,,4b/7,,,,3-8[8:1],,1>4[8:1],,3,,1,,,,
7b-4[8:1]/5xb-1[8:1],,,,5<2[16:3]/7,,,,2,,,,4,,4bqq5[4:1],,,,4/5b,,,,7-3-7[4:1],,,,2,,2,,,,
1b>4[8:1]b*q5[8:1]b,,,,1<3[4:1],,,,1/7,,,,8,,8bpp7[4:1],,,,8/2b,,,,3,,5,4,5,4,3/6,,,,
{16}2b-5[8:1]/5b-1[8:1],,,,5>8[16:3]/2,,,,7,,,,6,,6bpp5[4:1],,,,5b/6,,,,4<7[8:1],,2V48[16:3],,4,,2,,,,
7b<4[8:1]b*>2[8:1]b,,,,7qq8[4:1],,,,3x/7,,,,2,,2bv3-5[4:1],,,,5b/2,,,,6-1[8:1],,8-3[8:1],,6,,8,,,,
2xb-5[8:1]/4xb-8[8:1],,,,4>7[16:3]/2,,,,7,,,,5,,5bpp4[4:1],,,,5/4b,,,,3,,2>5[8:1]*-6[8:1],,,,2,,,,
8b-5[8:1]b*-4[8:1]b,,,,8>6[4:1],,,,8/2,,,,1,,1bqq2[4:1],,,,1/7b,,,,6,,5-8[8:1],,2-5[8:1],,5,,2,,
{16}7b-4[8:1]b,,,,2b/7b,,,,3,5,4,5,2,5,4,5,1>4[8:1],,8,,1/7,,6,,5,4,6,3,5,4,7,2,
6bv1[8:1]b,,,,5b/6b,,,,2,4,3,4,1-5[8:1],4,3,4,1,,7,,3,6,4,5,2,4,3,6,5,7,1,8,
2bq6[8:1]b,,,,2b/6b,,,,7,8,6,8,7,8,6,8,7<4[8:1],,1,,2/7,,3,,2,1,2,1,3h[8:1],,4,,
2b-5[8:1]b,,,,2b/5b,,,,7,4,6,5,7,4,6,5,7b-4[8:1]b,,3b,,7b,,,,2,5,3,4,2,5,3,4,
{16}2b-5[8:1]b,,,,7b/2b,,,,6,4,5,4,7,4,5,4,8<5[8:1],,1,,8/2,,3,,4,5,3,6,4,5,2,7,
3b-8[8:1]b,,,,4b/3b,,,,7,5,6,5,8-4[8:1],5,6,5,8,,2,,6,3,5,4,7,5,6,3,4,2,8,1,
7b-3[8:1],,,,3,,,,2,6,4,5,2,6,4,5,2b-6[8:1]*-6[8:1],,,,6/2,,,,7,3,5,4,7,3,5,4,
8b-4[8:1]b,,,,3b/8b,,,,1s5[16:4]b,7,3,5,,,,,,
E
