&title=2000VOLT
&artist=ALTA
&first=0
&lv_4=1
&des_4=
&inote_4=
(200)
E
&lv_5=14
&des_5=<ñųÏł>MXp1bWk=
&inote_5=
(200){4},3h[4:7]/4h[8:7],{8},,,,,,,,B7,
,,B5,
,,{4}6h[4:7]/5h[8:7],{8},,,,,,,,E1,
E2,E3,E4,
{4}E5,4h[4:7]/3h[8:7],{8},,,,,,,,B1,
,,B3,
,,{4}5h[4:7]/6h[8:7],{8},,,,,,,,E2,
E1,E8,E7,
{4}E6,{16}B3,B4,{8}B5,6,7,{16}B2,B3,{8}B4,
5,6,{16}B1,B2,{8}B3,4,5,{16}E1,E2,E3,E4,
{4}E5,{16}B6,B5,{8}B4,3,2,{16}B7,B6,{8}B5,
4,3,{16}B8,B7,{8}B6,5,4,{16}E1,E8,E7,E6,
{4}E5,{16}2x,3,4,5,,,{8}B2,{16}1x,2,3,4,
,,{8}B1,{16}7x,6,5,4,,,{8}B7,{16}8x,7,6,5,
,,{8}B8,{16}1x,2,3,4,8x,7,6,5,{32}1x,2,3,4,5,6,7,8,
1x,2,3,4,5,6,7,8>2-6-4v1[32:17],{8}1b,5bx-8-5[8:3],{24},,,,,,,,,,,,,,,,,,1x-5[32:3],
8x,{48},,,,,2,,1,,,,,,,{24}3,4,,1-5[32:3],8,{48},,,,,2,,1,
,,,,,,{24}3,4,,1-5[32:3],8,{48},,,,,2,,1,,,,,,,{24}3,4,,1-5[32:3],8,{48},,,,,2,,1,
,,,,,,{24}3,4,,8x-4[32:3],1x,{48},,,,,7,,8,,,,,,,{24}6,5,,8-4[32:3],1,{48},,,,,7,,8,
,,,,,,{24}6,5,,8-4[32:3],1,{48},,,,,7,,8,,,,,,,{24}6,5,{48},,{16}8,7,6,5,
4/8,1,2,3,4/8xp4[8:1],,,3,{8}8,{16}2,1,8q4[8:1],,,5,
{8}8,{16}6,7,8V64[8:1],,,3,{8}8,{16}2,1,8V24[8:1],,,5,
{8}8,{16}6,7,{24}1x-3[16:1],8x-4[16:1],{48},,,,,1,,8,,,,,,,{16}5x,6x,{24}5x-1[12:1],6x-8[12:1],{48},,,,,5,,6,
,,,,,,{16}2x,1xh,{8}2x,{48}8b,7,6,5,,,{8}1x,{48}7b,6,5,4,,,2b,B6f,,,,,,,,8b,B4f,,,,,,,5b,
{8}B1f,{4}3x/E6f,3,3,
3,3/Ch[4:3],3,3,
{8}3,3,{4}6/Cf,6,6,
{8}6,6,{4}6/Cfh[2:1],6,{16}6,,,E1f,
{8}6,E4f,5/2h[8:3],5,5,{16}5,6,{8}2/7h[8:3],2,
2,2,3/8h[8:3],3,3,{16}3,4,{8}8/5h[8:3],8,
8,8,{16}6,7,4,8,5,6,3,7,4,5,2,6,
3,4,1,5,{4}1bw5b[0.6##0.15],,B2/B3/B4/B7/B6/B5/B8/B1`Cf,
{16},,,,(100)8bx/1bx-4[8:1],1,1,1,1x/7x-2[8:1],7,7,7,7x/5x-8[8:1],5,5-2b[24:1],5,
,,,,8bx/1bx-4[8:1],1,1,1,1x/5x-8[8:1],5,5,5,5x/2x-7[8:1],2,2,2,
{64}2x/8x,D8,A7,D7,A6,D6,A5,D5,A4,D4,A3,D3,A2,D2,A1,D1,{16}8x/6x-3[8:1],6,6,6,6x/5x-8[8:1],5,5,5,5x/1x-4[8:1],1,1-6b[24:1],1,
,,,,5bx/3bx-6[8:1],3,3,3,3x/2x-7[8:1],2,2,2,2x/5x<7[16:1],5>2[16:1],5-8[16:1],5p1[16:1],
,,,,8bxp4[12:1],8,8/E4f,8,8x/2xp6[12:1],2,2/B6f,2,2x/4xv7[8:1],4,B8f/4-1b[24:1],4,
,,,,6bx/8bxq4[12:1],8,8/B4f,8,8x/5xq2[12:1],5,5/B1f,5,5x/3xq7[8:1],3,3/B7f,3,
{64}3x/1x,D1,A8,D8,A7,D7,A6,D6,A5,D5,A4,D4,A3,D3,A2,D2,{16}1x/4xp7[12:1],4,4/B8f,4,4x/8xp4[12:1],8,8/B4f,8,8x/6xv3[8:1],6,B2f/6-1b[24:1],6,
,,,,2bxq6[12:1],2,2/B6f,2,2x/7xq4[12:1],7,7/B3f,7,7x/5x<7[16:1],5>2[16:1],5-8[16:1],5p1[0.6##0.15],
,,,,(200){4}7bs3>2<1s5<6<7[2:7],,,,,,,,,,,,,,,,3h[4:7],
{8}6,7,,5,
{4}6,{8}4,5,,4,5,6,
,7,{4}B4,{8}E8/B8,E3/B3,,B6/B5,
{4}E2/B2,{8}E6/Cfh[4:3],E7,,A8,A7,A6,
{4}A5,E5f/6bv3[8:13],6,7,
7,8,8,1,
1,E1f/2bv7[8:13],2,3,
3,4bx,4,5,
5,6b-3-8[2:1],3-8-5b[2:1],8-5[4:1],
5,2b-7-4[2:1],7-4-1b[2:1],4-1[4:1],
1,{8}7,7/8,6,6/5,4/3,4/3,
2/1,2/1,8/7,6/5,3/4z8[3:1]*V62[3:1],2/1,{16},,,,,,,,2bx
||这是一个标记~
,
8,2,8,2,1,2,1,2,3,2,3,
2,4,2,4,8x,6,8,6,7,6,7,6,5,6,5,6,
4,6,4,6,3x,5,3,5,3,4,3,4,3,2,3,2,
3,1,3,1,5x,7,5,7,6,7,6,7,8,7,8,7,
1,7,1,7,3bx,4,3,4,2,5,2,5,1,6,1,6,
8,7,8,7,5x,6,5,6,4,7,4,7,3,8,3,8,
2,1,2,1,8x,7,2,5,1,6,3,4,2x,1,4,7,
3,8,5,6,8x,7,3,4,2x,1,5,6,{32}1x,2x,3x,4x,5x,6x,7x,8x,
{64}A1,D2/E2,A2,D3/E3,A3,D4/E4,A4,D5/E5,A5,D6/E6,A6,D7/E7,A7,D8/E8,A8,D1/E1f,{16}6bxv1[8:1],,,5,{8}6,2,{16}3v8[8:1],,,4,
{8}3,7,{16}5v2[8:1],,,6,{8}5,8,{24}7bx,6,5,1bx,2,3,
8bx,7,6,2bx,3,4,{16}5bxv2[8:1],,,6,{8}5,8,{16}7v4[8:1],,,1,
{8}7,3,{24}2bx,3,4,8bx,7,6,1bx,2,3,7bx,6,5,8bx,7,6,2bx,3,4,
1bx,2,3,7bx,6,5,{16}2bxv5[8:1],,,1,{8}2,6,{16}7v4[8:1],,,8,
{8}7,2,{16}1v4[8:1],,,8,{8}1,6,{24}2bx,3,4,8bx,7,6,
1bx,2,3,7bx,6,5,{16}4bxv7[8:1],,,3,{8}4,1,{16}2v5[8:1],,,8,
{8}2,6,{24}1bx,2,3,7bx,6,5,8bx,7,6,2bx,3,4,1bx,2,{48}3,,,,,7b,{96},{32}6x,
{8}5x,{16}2,3,{8}4-8[8:1],{16}5,5,{8}4,{16}7,6,{8}5-1[8:1],{16}3,3,
{8}5,{16}4,3,{8}2-6[8:1],{16}1,1,{8}2,{16}1,8,{8}7-3[8:1],{16}5,5,
{8}7,{16}6,5,{8}4-8[8:1],{16}5,5,{8}4,{16}7,6,{8}5-1[8:1],{16}3,3,
{8}5,{16}4,3,{8}2-6[8:1],{16}8,8,{8}2,{16}1,1,6x,5,4,3,
8x/2,7,6,5,{8}4x/2,2,2/8,2,2/3,2,
2/1,2,8/6xh[16:1],6h[16:1],4/6h[16:1],6h[16:1],7/6h[16:1],6h[16:1],
5/6h[16:1],6h[16:1],{16}8x,3,7,3,6,3,5,3,4,3,3,3,
2,3,1,3,{8}6x,{32}1b,2,3,4,{8}7x,{32}2b,3,4,5,8x,7,6,5,4b,3,2,1,
8x,7,6,5,4b,3,2,1,{4}8bx/B4/E4,{8}6,6/B2/E2,,3,
{4}3/B6/B5,{8}1,1/E8/B8,,5,5/E3/B3,5,
{4}5/E1/B1,E4/D4,{8}B7,E6/D6,,B1,
{4}E3/D3,{8}E4/B4,B6/E6,,A8/Ch[8:3],B7/A7,B6/A6,
{4}E5/A5,{8}4/7,{16}6,5,{8}6,5/2,{16}3,4,{8}3,
{16}8,5,6,5,{8}7,{16}2,4,3,6,4,5,3,4,2,6,
4,5,{8}3,{16}7,8,7,3,4,3,5,4,5,2,4,3,
6,4,5,1,3,2,7,5,6,2,4,3,8,7/3,6/2,5/1,
{4}8-3[12:1]/4-7[12:1],{24}8bxq3q8<3[4:7]`4bxq7q4>7b[4:7],Cf,
E
&lv_6=1
&des_6=
&inote_6=
(200)
E
