&title=黒目少女
&artist= 紅髮少年殺人事件
&first=-0.02
&des_5=你的眼镜上面有 一层薄薄的雾
&lv_5=14
&des=你的眼镜上面有 一层薄薄的雾
&inote_5=(190){4},{8},,,,,,E7,
E6,E5,3h[4:1],,4,{4}5/2,
{8}E3,E4,E5,6h[4:1],,5,{4}4/7,
{8}E7,E6,E5,2h[4:1],,4,{4}5/1,
{8}E3,E4,5-3b[8:1],7h[4:1],,,{4}8,
{16}7,5,6,5,6,5,6,5,6,5,6,5,6,5,6,5,
6,5,6,5,6,5,6,5,6,5,6,5,{4}4-2[8:1]`7-3[8:1],
7/4b<7b[8:1],1h[4:1],{8}8-4b[8:1],2-5b[8:1],8,2,
{4}6-3b[8:1],2h[4:1],{8}7-4b[8:1],5-1b[8:1],7,5,
{4}8<5b[8:1],3h[4:1],{8}4-8b[8:1],2-5b[8:1],4,2,
{4}7<4b[8:1],3h[4:1],{8}8-4b[8:1],2-4b[8:1],8,2,
{16}7x,5,6,5,6,5,6,5,6,5,6,5,6,5,6,5,
6,5,6,5,6,5,6,5,6,5,6,5,6,5,6,5,
7x,5,7,5,7,5,7,5,7,5,7,5,{8}7,{32}4,3,{16}2h[16:3],
{32},,,,7,6,{16}5h[16:3],,,{8}1w5[8:1],,,,,{4}2b-5[8:1]`5-1[8:1],
5/2,{8}8-4b[8:1],3-1<7-5b[4:1],8,3,
,1,,2/8,{4}2v5b[8:1]/8v5b[8:1],2/8,
7-4b[8:1]/4-8b[8:1],4/7,{8}1-5b[8:1],6-8>2-4b[4:1],1,6,
,8,,7/1,{4}7v4b[8:1]/1v4b[8:1],7/1,
2-5b[8:1]/6-3b[8:1],2/6,{8}4-8b[8:1],7-3b[8:1],4,7,
,2h[4:1],,1,{4}3<5b[8:1]/8<6b[8:1],3/8,
7-4b[8:1]/3-6b[8:1],7/3,{8}5-1b[8:1],2-6b[8:1],5,2b,
,7h[4:1],,8b,{4}6>4b[8:1]/1>3b[8:1],6/1,
2b-6[8:1]`5-7[8:1],5/2,{8}8-4b[8:1],3-8b[8:1],8,3,
{4}5-7b[8:1],5/3-5b[8:1],3/8h[4:1],1,
7-3[8:1]`4-2[8:1],4/7,{8}1-5b[8:1],6-1b[8:1],1,6,
{4}4-2b[8:1],4/6-4b[8:1],6/1h[4:1],8,
7b-3[8:1]`8-4[8:1],8/7,{8}2>5b[8:1],5-2b[8:1],2V48b[4:1],6b,
,,{4}7-4b[8:1],{2}1-6b[8:1],
{4}2b-6[8:1]`1-5[8:1],1/2,{8}7<4b[8:1],4-7b[8:1],7V51b[4:1],3b,
,,2-5b[8:1],8bh[8:3],,,{4}4,
6/5,6,6/5-1-4-8b[8:7],6,
6,6,6,6,
7<5b[8:1],8,3>1b[8:1],{8}4,5<8b[8:1],
,,{4}2>5b[8:1],{8}7,7h[4:1],,5,
{4}4>2[8:1]`6b<1[8:1],4/6,{8}8-4b[8:1],2-5b[8:1],8,2,
,8,{4}7-3b[8:1],4-1b[8:1]*-7b[8:1],4,
2-6b[8:1]/6-1b[8:1],2/6,{8}4-8b[8:1],7-3b[8:1],4,7,
,1,{4}2h[4:1],8-2b[8:1]*-6b[8:1],8,
3/4,3,3/4-8-5-1b[8:7],3,
3,3,3,3,
2>4b[8:1],1,6<8b[8:1],{8}5,4>1b[8:1],
,,{4}7<4b[8:1],{8}2,2h[4:1],,4,
{4}5<7[8:1]`3b>8[8:1],5/3,{8}1-5b[8:1],7-4b[8:1],1,7,
,1,{4}2-6b[8:1],5-8b[8:1]*-2b[8:1],5,
7-3b[8:1]/3-8b[8:1],7/3,{8}5-1b[8:1],2-6b[8:1],5,2b,
,8,7h[4:1],1b,{4}2w6b[8:1],2,
8,8,8/4-7-5-1>3b[8:7],8,
8,8,8,8,
5-7b[8:1],4,2-4b[8:1],{8}1,8<5b[8:1],
,3>8b[8:1],,,6,6h[4:1],,5,
{4}7-4[8:1]`2b-5[8:1],7/2,{8}1-6b[8:1],7-4b[8:1],1,7,
,2>5b[8:1],1,2,{4}8v5b[8:1]*v3b[8:1],8,
6-4b[8:1]/2-4b[8:1],6/2,{8}5-8b[8:1],2-4b[8:1],5,2b,
,5>2b[8:1],7,6bh[4:1],,8,{4}8,
1,1,1/5-2-4-8<6b[8:7],1,
1,1,1,1,
4-2b[8:1],5,7-5b[8:1],{8}8,1>4b[8:1],
,,{4}6<1b[8:1],{8}3,3h[4:1],,4,
{4}2-5[8:1]`7b-4[8:1],2/7,{8}8-3b[8:1],2-5b[8:1],8,2,
,7<4b[8:1],8,7,{4}1v4b[8:1]*v6b[8:1],1,
3-5b[8:1]/7-5b[8:1],3/7,{8}4-1b[8:1],7-5b[8:1],4,7b,
,4<7b[8:1],2,3bh[4:1],,8,{4}8,
2h[8:1]/5h[8:1],2h[8:1]/5-7b[8:1],2h[8:1],2h[8:1],
6h[8:1]/5h[8:1],6h[8:1]/5-3b[8:1],6h[8:1],6h[8:1],
5h[8:1]/7h[8:1],5h[8:1]/7-1b[8:1],5h[8:1],5h[8:1],
8h[8:1]/4h[8:1],8h[8:1]/4>1b[8:1],8h[8:1],8h[8:1],
5-2[8:1]`7b-4[8:1],5/7,{8}1v4b[8:1],5-8b[8:1],1,5,
,2h[4:1],,1,{4}3>1b[8:1]/8<5b[8:1],8/3,
4-7[8:1]`2b-5[8:1],4/2,{8}8v5b[8:1],4-1b[8:1],8,4b,
,7h[4:1],,8b,{4}6<8b[8:1]/1>4b[8:1],1/6,
{16}5x,7,5,7,5,7,5,7,5,7,5,7,5,7,5,7,
4x,6,4,6,4,6,4,6,4,6,4,6,4,6,4,6,
3x,5,3,5,3,5,3,5,3,5,3,5,3,5,3,5,
3x,4,3,4,3,4,3,4,3,4,3,4,{4}2-6[8:1]`5-7[8:1],
5b>2b[8:1],8h[4:1],{8}1-4b[8:1],7-5-3-1b[4:1],1,7b,
,,3,4b,,6/5,{4}7-3[8:1]`4-2[8:1],
4<7b[8:1],1h[4:1],{8}8-5b[8:1],2-4-6-8b[4:1],8,2b,
,,6,6b>4b[8:1],,2,{4}2,
{32}8bx/1bx>8b[4:11],2/7,6/3,4`5pp4[32:85],{1},,,{4},{16},,{4}1-3[8:1],
1/6,
5-2[8:1]`4b-8[8:1],5/4,{8}1-4b[8:1],7-1>3-5b[4:1],1,7,
,1h[4:1],,8,{4}2-6b[8:1]/7-3b[8:1],2/7,
4-7[8:1]`5b-1[8:1],4/5,{8}8-5b[8:1],2-8<6-4b[4:1],8,2b,
,8h[4:1],,1,{4}7-3b[8:1]/2b-6b[8:1],7/2,
5,5,5/2-6-3-7b[8:7],5,
5,5,5,5,
8>2b[8:1],7,6<8b[8:1],{8}5,4>1b[8:1],
,,{4}7<4b[8:1],{8}1,2h[4:1],,1,
{4}3-8[8:1]`8b-4[8:1],3/8,{8}1-5b[8:1],7-4b[8:1],1,7,
,3<5b[8:1],6,3,{4}8-4b[8:1]*-3b[8:1],8,
6-1[8:1]`1-5[8:1],6/1,{8}8-4b[8:1],2-5b[8:1],8,2b,
,6>4b[8:1],3,6b,{4}1-5b[8:1]*-6b[8:1],1,
2h[8:1],2h[8:1],2h[8:1]/7-3-8-4b[8:7],2h[8:1],
2h[8:1],2h[8:1],2h[8:1],2h[8:1],
6>4b[8:1],7,3>1b[8:1],{8}4,6<1b[8:1],
,,{4}3<6b[8:1],{8}8,7h[4:1],,8,
{4}2-7b[8:1]/6-3b[8:1],2/6,{8}4-8b[8:1],1-5b[8:1],4,1b,
,6/7-3b[8:1],,3b,{4}2v5b[8:1]*q6b[8:1],2,
7v4b[8:1]/4v1b[8:1],4/7,{8}5<8b[8:1],2>5b[8:1],5,2b,
,7-3b[8:1]/8-4b[8:1],6/1,8/7b,{16},,2,4,3,5,4,4,
{4}7h[8:1],7h[8:1],7h[8:1]/2-6-1-5b[8:7],7h[8:1],
7h[8:1],7h[8:1],7h[8:1],7h[8:1],
3<5b[8:1],2,6<8b[8:1],{8}5,3>8b[8:1],
,,{4}6>3b[8:1],{8}1,2h[4:1],,1,
{4}7-2b[8:1]/3-6b[8:1],7/3,{8}5-1b[8:1],8-4b[8:1],5,8b,
,3/2-6b[8:1],,6b,{4}7v4b[8:1]*p3b[8:1],7,
2v5b[8:1]/5v8b[8:1],5/2,{8}4>1b[8:1],7<4b[8:1],4,7b,
,2-6b[8:1]/1-5b[8:1],3/8,1/2b,,7,{4}8<5[8:1],
{32}5b,4bx,3bx-7-2-6<3b[16:43],2bx,{1},,,{8}7x,
{16},7x,,,,,{8}2/5,{16}3,4,{8}2,
{16},7/5,,6,5,7,,,{8}1/2,2/1,{16},3/4,
E
