&title=B.B.K.K.B.K.K. (USAO Remix Game Edition)
&artist=nora2r/USAO
&first=-0.005
&des=Burger King
&des_5=Burger King
&lv_5=14+
&inote_5=(195){4},{8}5/4,3,{4}2-5[8:1]/6-1[8:1],6b/2b,
Cf,B1,B2,B3,
B4,B5,{8}7,7,{4}6/3,
{8}3/5,2,6/4,7,3/4,1,6/5,8,
{4}1h[4:1],{32}7,6,5,4,3,2,1,8,{4}7-3[8:1],1-5[8:1]/7b-5[8:1],
1-3[8:1]/7-3[8:1],1-5[8:1]/7-5[8:1],1-3[8:1]/7-3[8:1],1-5[8:1]/7-5[8:1],
1-3[8:1]/7-3[8:1],1-5[8:1]/7-5[8:1],1/7,8-6[8:1]/2-6[8:1],
8-4[8:1]/2-4[8:1],8-6[8:1]/2-6[8:1],8-4[8:1]/2-4[8:1],8-6[8:1]/2-6[8:1],
8-4[8:1]/2-4[8:1],2-6[8:1],2b/7-3[8:1],7b,
{8}2,{16}1,3h[8:3],,8,,7,,6,,3,,6,{8}2,
7,{16}8,6h[8:3],,1,,2,,3,,6,,2,{8}7,
{16}1,1,1,1,1,1,1,1,1,1,1,1,1-3[8:1]*-7[8:1],1,1,1,
{4}1xs5[8:1]*z5[8:1],1x>4[8:1]*<6[8:1],1xw5[8:1]*-5[8:1],1bx,
{8}2/8-5[8:1],2,2/8,2,3/6-1[8:1],3,6/3,3,
2/8-5[8:1],2,8/2,2,3/6h[4:1],3,2,2,
7/1-4[8:1],7,7/1,7,6/3-8[8:1],6,3/6,6,
7/1-4[8:1],7,1/7-3[8:1],7,{4}7/1w5[8:1],1,
{8}2/1-5[8:1],2,2/1,2,3/8-6[8:1],3,3/8,3,
2/5-1[8:1],2,2/5,2,3/8-6[12:1],3,2/8,2,
{16}3h[8:1]/5h[8:1],,,5h[8:1]/3h[8:1],,,{8}6/2,{4}8h[8:1],8h[8:1],
{32}2-6[8:1],3,4,5,6,7,8,1,{4}2b,{32}8w4b[8:1],7,6,5,4,3,2,1,{4}8b,
{8}2,8,2,7,2-6[8:1],{16}6,6,{4}2-7[8:1],
2b,{8}8-4[8:1],8,{4}8b/1-5[8:1],1b,
6/4,{8}3h[8:1],4,3h[8:1],2,3h[8:1],4,
2xh[8:1],{16}5,5,{8}2h[8:1],B5,2h[8:1],B4,2h[8:1],C,
{48}2x,3,4,5,,,,,,8x,7,6,{8}5,1h[8:1],{48}7x,6,5,4,,,,,,1x,2,3,{8}4,8h[8:1],
1,{16}8,1,,8,{8}1,{4}2/7,{8}6,6,
1>4[8:1],1,{16}7x,6h[16:3],,,5h[16:3],,,4h[16:3],,,{8}3,
5<8[8:1],5,{16}2x,3h[16:3],,,2h[16:3],,,1h[16:3],,,{8}7,
{16}8,8,8,8,8,8,8,8,8,8,8,8,8,8,8,8,
{4}8-5qq5[8:3],8/1,,E8/B7/B6/E6/C/B1/B4,
{8}3/6,{16}4,5,4,5,,3,,3,,5,4,5,{8}4,
3/8,{16}2,1,2,1,,3,,3,,1,2,1,{8}2,
3/4,{16}5,2,6,1,,7,,7,,2,8,3,{8}7,
6/4>1[4:3],,,7,8,7,6,5,
{2}Ch[4:7],{4}2,3,
B4,B3,B2,B1,
{8}8/7,6,6,5/4,3,3,{4}2/1,
{32},,,,,,,,2/7-3[8:1],3,4,5,6,7,8,1,{4}7bx/2-6[8:1],2b-4[8:1]/1-5[8:1],
2-6[8:1]/1-7[8:1],1q5[8:1]/2>4[8:1],2p6[8:1]/1<7[8:1],1-4[32:3]/2-4[32:3],
1-7[32:3]/2-7[32:3],1/2,{8}5b/6b,B8/E8/B7/D8,2b/1b,B3/B4/E4/D4,
{4}6b/5b,8b/4b,7b/3b,6b/2b-5[8:1],
2/7-4[8:1],7/1w5[4:1],{8},,,,2-4[8:1],
4-8[32:5],{16}6,6,,,5h[8:1],,,6h[8:1],,,{8}7,
8-2[8:1],2-6[32:5],{16}3,3,,,4h[8:1],,,3h[8:1],,,{8}2,
1-7[8:1],7-3[32:5],{16}6,6,,,5h[8:1],,,6h[8:1],,,{8}7,
{32}8b-4[8:1]/1b-5[8:1],7/2,3/6,5/4,,,,,{4}8b<5[8:1]/1b>4[8:1],8b/1b,3/6,
4h[8:1]/3-1[8:1],3/4h[8:1],8h[8:1]/7-5[8:1],7/8h[8:1],
4h[8:1]/3v5[16:3],3/4V68[4:1],{8},,2x-4[8:1],2x,
2-6[8:1],7,2-4[8:1],8,2-6[8:1],{16}7,7,{8}2,8,
{4}1h[4:1],{8}2-6[8:1],2,{4}2b/7-3[8:1],7b,
,,,,,,,,{2}2>5b[8:1]/7<4b[8:1],
{8}2<8b[8:1],8-4b[8:1],{4}4<6b[8:1],
{8},,,,4-1b[8:1],1-6b[8:1],{4}7-3b[8:1],
{8},,,,3<5b[8:1],5<7b[8:1],7>1b[8:1],1>3b[8:1],
,,,8,7-5[12:1]*-5[12:1],6qq5[8:3]*pp7[8:3],,,,,,,2,
1v4[8:1]*v4[8:1],{4}8-5[8:1]*-5[8:1],
{8},,,,8-4[8:1],8,3,2,
{16}1,1,1,1,1,1,1,1,1,1,1,1,1,1,1,1,
{4}1,{8}2-6[8:1],2,{4}2b/7-3[8:1],7b/2,
{16}1-5[8:1],,,1,,,8,7,6>3[8:1],,,6,,,8,1,
2-5[8:1],,,2,,,8,7,{8}6,{16}2,3,{8}4,{16}6,7,
8-4[8:1],,,8,,,3,2,1>4[8:1],,,1,,,5,6,
7-4[8:1],,,7,,,3,2,{8}1/5,6,7/2,3,
{16}4/5h[16:3],,,4,{8}5,4,{16}5/6h[16:3],,,5,{8}6,5,
{16}4/7h[16:3],,,4,{8}7,4,3/8,7,6/2,3,
{16}5/4h[16:3],,,5,{8}4,5,{16}4/3h[16:3],,,4,{8}3,4,
{16}5/2h[16:3],,,5,{8}2,5,6/1,2,3/7,6,
1-5[8:1],1,8,7,6-2[8:1],6,5,4,
3-7[8:1],3,2,1,8-4[8:1],8,1,2,
1-5[8:1],1,8-4[8:1],8,7-3[8:1],7,6-2[8:1],6,
5-1[8:1],5,4-8[8:1],4,3-7[8:1],3,2-6[8:1],2,
{16}1xh[8:1],,,1xh[8:1],,,{8}1x,{4}7-4[8:1],7,
{16}1xh[8:1],,,1xh[8:1],,,{8}1x-5[8:1],{4}7-4[8:1],7,
{16}1xh[8:1],,,1xh[8:1],,,{8}1x-5[8:1],{4}7-4-6[24:5],7,
{8}Ch[1:2],,,B2,B8,B3,B7,B4,
{4}B6,5,6,7,
8<5[2:1],2,3,4,
{8}5/6,7,7,8/1,2,2,{4}4/3h[2:1],
{8},,7-3[8:1],7,{16}7b/2-6[8:1],C,,,2b,C,,,{8}7h[8:1],
1,7h[8:1],2,7h[8:1],{16}3,3,{4}7h[8:1],
{32}1-5[8:1],2,3,4,5,6,7,8,{4}1,8w4b[8:1],8,
{8}2-5[8:1],{16}1,2,,8,,7-4[8:1],,6,,7,{4}8,
{8}3-8[8:1],{16}4,3,,5,,6-1[8:1],,7,,6,{4}5,
{8}4,{16}5,3,,6,,2,,7,,1,{4}8h[4:1],
{16}1,2,3,4,5,5,5,5,5,5,5,5,{4}5x-2[8:1]/4x-2[8:1],
4-7[8:1]/5-7[8:1],4/5-1[8:1],{8}5/4-8[8:1],3,{4}4/2-6[8:1],
2-4[8:1]/1-5[8:1],2-6[8:1]/1-7[8:1],{2}1-5[8:1]/2-4[8:1],
{16}8/1,2/7,{8}3h[8:1]/6h[8:1],{16},,,,5/4,6/3,{8}7h[8:1]/2h[8:1],{16},,1,2,
{8}3x-8[8:5],3x,{16},,5,6,{8}7x-4[8:1],7x,{4}7x,
{8}3,{16}2-5[8:1],1,{8}3,2/1,6,{16}7-4[8:1],8,{8}6,7/8,
2,{16}3-8[8:1],4,{8}2,3/4,7,{16}6-1[8:1],5,{8}7,6/5,
3,{16}2>4[32:3],4,{8}1,2/5,6,{16}7<5[32:3],5,{8}8,7/1,
2,{16}3>1[32:3],1,{8}4,3/8,7,{16}6<8[32:3],8,{8}5,6/2,
1>4[8:1],{16}8,8,{8}1,6,5-1[8:1],7-4[8:1],5,7,
2-5[8:1],{16}8,8,{8}2,7,6>3[8:1],7,8/6,1,
8<5[8:1],{16}1,1,{8}8,3,4-8[8:1],2-5[8:1],4,2,
7-4[8:1],{16}1,1,{8}7,8,1-5[8:1],2,{4}1/3h[4:1],
{16}7h[16:3],,,8-4[8:1],{8}7,8,{16}5h[16:3],,,3<6[8:1],{8}5,3,
{16}8h[16:3],,,7-2[8:1],{8}8,7,6h[8:1],5h[8:1],4h[8:1],3,
{16}6/2h[16:3],,,1-5[8:1],{8}2,1,{16}4h[16:3],,,6>3[8:1],{8}4,6,
{16}1h[16:3],,,2-7[8:1],{8}1,2,3h[8:1],4h[8:1],5-1[8:1],6,
{4}5/3-7[8:1],3/7,{8}6,6,5b/1b,2,
3/6-1[8:1],5,6/3-8[8:1],4,3/7-4[8:1],6,7/3,2,
{24}1/5h,2,3,4,{48}5,2h,{24}6,7,8,1,2/7h,3,4,{32}8/5,7,6,5,4,3,2,1,8,7,6,5,4,3,2,1,
{4}8/4,{8}1-5[8:1],8-4[8:1],1-3[8:1],8-6[8:1],1,8,
{1}Cfh[16:0],
