&title=Inverted Paradise
&artist=Essbee
&first=0.42
&des=Lino
&lv_5=14
&des_5=Lino
&inote_5=
(200){4},,{2}Cfh[2:1],
{1}B7/B2/B6/B3/E3/E7,
,,,7h[2:1]/5-1[2:1],
2h[2:1]/8-5-2[2:1],
{4}3h[2:1]/7pp8-5[2:1],,,2,
{8}1/5,1/5,{24}2,3,4,6,7,8,{2}1b/5b,
{32}8q2b[4:11]/4q6[4:11],7/3,6/2,5/1,{1},,,{4},,,{16},,{6}4/6h[2:1],
4h[6:1],,3h[2:1],5h[6:1],,8h[2:1],
6h[6:1],,1h[2:1],3h[6:1],,8,
7,6,5-7[8:1],4,3,
{12}2,1,3,7,8,6,{2}1bw5[8:1],
{1}3h[4:1]/7qq4[1:1],
4<1[1:1],
{4}1qq6[1:1],2,,,{1}B3,
6h[4:1]/2pp5[1:1],
5>8[1:1],
{4}8pp3[8:7],7,,,{1}Cfh[1:1],
{2}1bs5b[16:3],7xV51[4:1]/4x-2[8:1],
{6}2xh[12:1],3h[12:1],4h[12:1],5b/8bh[12:1],7h[12:1],6h[12:1],
{2}1/5s1[16:3],3xV15[4:1]/8x-6[8:1],
{6}6xh[12:1],7h[12:1],8h[12:1],1b/4bh[12:1],3h[12:1],2h[12:1],
5/1b-4[16:1],6,7h[12:1],8/5b-2[16:1],7,6h[12:1],
1/5b-8[16:1],2,3h[12:1],4/1b-6[16:1],3,2h[12:1],
{1}1V73-5[8:5]*s5[8:5],
Ch[2:1],
{4}4w8[8:1],4x,{2}6b/2bV48[16:3],
6V84[16:3],{8}1<6[8:1],2,{4}1/5v4-2[8:3],
{2}5x/6x-8[8:1],{4}1b-5[8:1],1x/7bqq4[8:3],
,2h[4:1],{2}3q6[8:3],
{4}1-5[8:1],1>3[8:1],{16}6x/1bx,7x,{8}8xV62[16:3],,,{2}4x>2-6[16:3],
{4}8<6-1[16:3],5,
4V25[16:3],8,7-1[8:1],7xqq3[8:5],
,2-8[8:1],{2}Cf,
{4}5-8[8:1]/1v4[8:1],1b/5b,{8}7b/3b,7bh[8:1]/3b-8[8:1],,6-3[8:1],
,1V74[16:3],,5V38[16:3],{4}5b,2b,
7x/1xs5[4:1],6h[8:1],7h[8:1],8pp3[8:5],
{8},4,{4}4-6[8:1],{2}Cf,
{4}6xh[8:1]/4xh[8:1],6xh[8:1]/4x-8[8:1],4b/6b,7xh[4:1]/1xpp4[8:3],
,6xh[8:1],{2}6bx/5bx-2[8:1]*-8[8:1],
7xh[8:3]/1xs5[4:1],{4}7b,6xh[4:1]/4xqq1[8:3],
,7xh[8:1],{2}7x/8x-5[8:1]*-3[8:1],
{6}6h[12:1]/4-8[8:1],6h[12:1],6h[12:1],6h[12:1]/7-2[8:1],6h[12:1],6h[12:1],
6h[12:1]/1-5[8:1],6h[12:1],6h[12:1],6bv1[8:1]/4bv1[8:1],,,2h[12:1]/8-4[8:1],
2h[12:1],2h[12:1],2h[12:1]/3-6[8:1],2h[12:1],2h[12:1],
2h[12:1]/7-3[8:1],2h[12:1],2h[12:1],2bv7[8:1]/4b-7[8:1],,,8h[12:1]/5-1[8:1],
{12}8h[12:1],5,{6}8h[12:1],8h[12:1]/2-6[8:1],{12}8h[12:1],2,{6}8h[12:1],
8h[12:1]/7-4[8:1],{12}8h[12:1],7,{6}8h[12:1],8bv6[8:1]/3bv1[8:1],,,2h[12:1]/7-3[8:1],
{12}2h[12:1],7,{6}2h[12:1],2h[12:1]/4-8[8:1],{12}2h[12:1],4,{6}2h[12:1],
1h[12:1]/2h[12:1],3h[12:1]/8h[12:1],4h[12:1]/7h[12:1],6b-1[8:1]/5b-2[8:1],,,3/8,
4/7,{12}6,6,{6}5,2/4,{12}1,1,
{6}8,7/5,{12}6,6,{2}6b-1[8:1],
{6}8/2,{12}1,7,7,3,3,6,{6}6,{12}1,1,
{6}5-1[8:1],2,{12}3,3,{2}3b-7[8:1],
{12}6,6,{6}8,{12}1,1,{6}7b,8/2,{24}3,4,{12}5,
8b,{24}2,3,{12}4,7,7,2,6b,1,5b,8,4b,7pp2[6:5],
{1}3xpp6b[4:3],
,E8/B7,
E2/B2,
{2}B8/B1,B2/B3/E3,
{4}B7/B6/E7,,,E8,
{2}B7,E2/B2,
B6/E6,B3/E4,
{4}B7,B8,B1,B2,
C,{8}5x,6x,{2}7x<2[4:1],
{1}1xpp4[1:1],
4x>5[1:1],
5xpp8[1:1],
8x<1[4:3],
{4}8p4[2:1],2,2,2,
2>5[8:3],6,7,8,
{16}8,4,8,4,7,3,7,3,6,2,6,2,5,1,5,1,
{32}5x,6x,7x,8x,1x,2x,3x,4x,5x,6x,7x,8x,1x,2x,3x,4x,{2}5xw1[8:1],
{1}7b-4<8-5[4:11]/3b-8>4-1[4:11],
{4},,,,,,,,,,E7/B7/B6,
B2/B3/E3,
{6}6h[12:1],5/7h[12:1],{12}3,3,{6}4h[12:1],5/2h[12:1],{12}6,6,
{6}8h[12:1],1/7h[12:1],{24}2,3,4,5,{12}7,7,7,5,5,5,
{1}8bw4[1.2##0.2],
{12},,,,,,2,4,3,8,6,7,
{24}2x,3x,4x,5xh[8:3],,,{4}8,{32}8bv3[8:1],7x/4x-7[32:3],6x/3x,5x/2x,{4},{16},,{24}7x,
6x,5x,4xh[8:3],,,{4}1,{32}1v6[8:1]*v4[8:1],2x/5x,3x/6x,4x/7x,,,,,,,,,,,,,{2}7bh[4:1]/3bh[4:1],
{6}6h[12:1]/5h[12:1],3h[12:1]/4h[12:1],2h[12:1]/1h[12:1],
{32}7b/8b,6x/1x,5x/2x,4x-7[8:1]/3x-8[8:1],,,,,,,,,,,,,{2}D8f/A7/A8,
{4}8/4h[4:1],6,{6}2/5h[6:1],8h[6:1],3h[6:1],
{4}7-1[8:1],{8}7,4-7[8:1],,4,{4}1>4[8:1]*q5[8:1],
1,{8}8<5[8:1]*p4[8:1],8,,,{4}2-7b[8:1]*-6b[8:1],
2x,8-3[8:1]/5-2[8:1],,1>4[8:1]/4<7[8:1],
{24},,,,,,,,,,8x,1x,2x,3x,4x,1/5x,2/6x,3/7x,4/8x,5,6,7,8,1,
{2}2x-5[8:1]/6xv1[8:1],{6}4/8,3/7,2/6,
{2}5<8[8:1]/1>4[8:1],{32}1,2x,{16}3x,{96},,,,8,,,1x,,,{48}2x,{96},,,,,,,,7,,,8x,,,{48}1x,{96},,,,,,,,{32}6,
7x,{16}8xz4[4:1],,,,,,Cf,{4},,{6}3/6,
1/8,{12}7,7,{6}5,3/4,{12}7,7,
1,1,{24}8,7,6,1,2,3,{12}4,5,5,4,4,7,7,
{16}1,8,1,8,1,8,1,8,{24}1x,2,3,4x,5,6,2x/7x,3,4,5x,6,7,
{32}8x/1x,2x,3x,4x,5x,6x,7x,8x,1x,2x,3x,4x,5x,6x,7x,8x,{2}1bxw5[8:1],
{8}1x/8x,{16}6,5-1[8:1],{8}7,{16}4,5,{8}3,{16}2,2,{8}6-2[8:1],1<6[8:1],
6<4[4:1],1,{4}5h[4:1],{8},,6-1[8:1]/5-2[8:1],5/6,
{4}6b/5b,{8}3/8,{16}7,7x,{8}1,{16}2,2x,{8}8,{16}6,6x,
1x,2,3x,4,5x,6,7x,8,1x,6,1x,6,2x,7,2x,7,
{8}8b/1b,{16}3,4-8b[8:1],{8}2,{16}5,4,{8}6,{16}7,7,{8}3-7b[8:1],8>3b[8:1],
3>5b[4:1],8,{4}4h[4:1],{8},,4-7[8:1]/3-8[8:1],3/4,
{4}3b/4b,6-2[8:1]/5-1[8:1],5b/6b,3x/4x,
{8}6x/5x,{16}3,2x/4x,,6,{8}7x/5x,{4}1bw5b[8:1],1b,
{8}5x-8[8:1]/4x-1[8:1],5x/4x,{4}5x/4x,{8}7<4[8:1],8,1,2,
3>8[8:1],4,5,6,7-3[8:1],8,{4}1,
{8}2-5[8:1],1,8,7,6-1[8:1],5,4,3,
{16}2,1,2,1,3,8,3,8,4,7,4,7,5,6,5,6,
{2}1bpp5b[4:3],{4}7,7,
6,6,{8}3/7,7,2/6,2,
{16}4x,8,4,8,2x,6,2,6,1x,5,1,5,3x,7,3,7,
{24}3x,2,1,7x,6,5,3x,2,1,7x,6,5,{2}4b-8b[8:1],
{192}7x<1>7b[2:7],1xs5s1[192:671],{1},,,{4},,,{16},,,{64},,,{192},{6}6,
5,4,3,4,5,
6,7,8,3,2,1,
E8,E7,E6,E2,E3,E4,
E1,C,E5,E2/B2,E8/B7,Cfh[6:1],
E
