&title=Sweet&Sour
&artist=Skuzyo or Sobrem
&first=0
&des=雨乃魄 or まぐろ
&lv_5=14+
&inote_5=(200)
,,,,
{8}
,
(170){16}
1b/8b,,,,2,2,6,6,5,5,7,7,1,1,8,8,
{24}
2b,3,4,5,6,7,
{16}
8,8,5,5,2,2,7,7,4,4,8h[16:1],,,2b,6/2,,2b,2/5,,2b,2/4,,2b,2/3,,2b,2/1,,2b,2/8,,2bx,2x/7x,,2bx,2x/6x,,2bxh[8:1]/5bxh[16:3],,,,
{24}
2,1,8,7,6,5,
{16}
4bx/8bx,,,,
{32}
2,3,4,5,1,2,3,4,
{24}
7,6,5,
{16}
4V62[4:2]/8,,,,,,8,,8,,,,,,1-5[16:1],,,,8qq5[4:2]/1,,,,8,,
{24}
4,3,2,1,,,
{16}
,,2x,6x,3x,7x,4x,8x,5x,1x,2bx<7[16:1]/6bx>3[16:1],,,,2bx-7[16:1]/6bx-3[16:1],,,,2bx>5[8:1]/6bx<1[8:1],,,,2bx/6bx,,,,A3h[4:2]/E8,,E7,,E6,,E5,,2xh[8:3],,
{32}
,,4bx,5,6,7,
{16}
,,,8bh[4:1],,
{32}
,,1b,2,3,4,
{16}
,,,5b,,,
{32}
8b,1/7,2/6,3/5,
{16}
4,,,8b-3[16:1],,4,4,8b<5[8:1],,4,,A3h[64:11]/A2h[64:11],,,
{48}
A4/A1,D5/D1,A8/A5,D6/D8,A6/A7,D7,,
{16}
,,,2,3,4,5,
{24}
8b,1,2-5[16:1],3,4,5,
{16}
6bv8[16:1]/2b,,,,,,,,4b,6,5,6,3,6,5,6,2,6,5,6,1,6,5,6,8,6,5,6,8,6,5,6,1,6,5,6,2,6,5,6,3,6,5,6,4,6,5,6,
{24}
7,8,1,2,3,4,5/7,8,1,2,3,4,5,6,7,8,1,2,3/5,6,7,8,1,2,3-7[16:1]/5-1[16:1],,,,,,3/5,,,,,,
{16}
1bx/2bx,,3bx/4bx,,5bx/6bx,,7bx/8bx,,2bxh[8:2]/1bx,,,
{32}
4bx,5,6,7,
{16}
,,,
{32}
5h[32:21]/6b,7,8,1,2,3,4b,,,
{16}
,,,
{32}
4b,3,2,1,8,7,6b,,,
{16}
,,,
{8}
4/3h[8:1],2h[8:1],1h[8:1],8h[8:1],7h[16:1],,5b/6b,,
{16}
,2b,1,8,7,
{32}
6b/2b,5/1,4/8,3/7,2/6,1/5,4/8,3/7,
{16}
2b>5[16:1]/6b<1[16:1],,,,,,,,8,,8,,8/3,,8/2,,8/1h[16:4],,8,,8,,8/1,2,8/3,,8/2,3,8/4,,8/3pp5[8:1],4,5/8,,8/3,,8,,8/4,3,8/2,,8,1,8,,8/2,,8,,8/3h[8:1],,8,,8/4,5,8/6qq3[8:4],,8,,8,,8,,8,,8,,8,,8,,1/8,,1/8,,1/7,,1/7,,1/6,,1/6,,1/5,,1/5,,1/4,5,1/6,,1/6,,1/7,,1/7,,1/8,,1/8,7,1/6,5,1/4pp6>5v7[4:1],,1,,1,,1,,1,,1,2,3,,4/8,3/7,2/6,,1q5[8:1],,5v3[8:1],,1b,,8,,7<4[16:1],,2,,7bx,,1bx,,
{32}
2x,3x,5x,4x,2x,3x,5x,4x,2x,3x,5x,4x,2x,3x,5x,4x,2x,3x,5x,4x,2x,3x,5x,4x,2x,3x,5x,4x,,,,,2bx,1,8,7,
{16}
5,
{32}
8b,1,2,3,
{16}
7,
{32}
5b,4,3,2,
{16}
8,
{32}
1b,2,3,4,5,6,
{16}
7b<5[4:1]/8bqq5[8:4],,,,,,,,,,4pp6pp8[4:2],3,2,1,,,,,,2,3,4,5,
{32}
7,6,5-8[16:1],4,3,2,1,8,7,6,
{16}
5/1,,,,,,8,7,6,5,4,3,2,1,8,1,8,1,7,2,7,2,6,3,5,4,7,2,8,1,2,3,4,5,
{24}
1,8,7,6,5,4,3,2,1,
{16}
4,8,3,7,2,6,
{32}
1b,2,3,4,5,,,,8b,7,6,5,4,,,,
{16}
7/3,8/4,1/5,2/6,3/7,4/8,1/5,2/6,3>8[16:1]/7<4[16:1],,,,3/7,,,,2b/6b,,3/7,,4/8,,5/1,,6p2[16:1],,,6/Ch[16:2]/B8h[16:3]/B7h[16:3]/E8h[16:4],,,,,1b,,2/6,,3/7,,4/8,,1V74[8:1]/5,,,1/C/B4/B5/E5,,3,2,1,8/3,,1/4,,2/5,,3/6,,5b>2[16:1],,,7bv4[8:1],,,7b,,8bqq5[8:5],,,,1,1,1,1,1,1,1,1,1b,,,,2b,,3/6,,4/7,,5/8,,2b,,3/5,,4/6,,5/7,,2b,,3/4,,4/5,,5/6,,2b,,3/7,,4/8,,5/1,,
{16}
2b/6b,,,,
{32}
1b,5,1,5,1,5,1,5,1,5,1,5,1,5,1,5,1,5,1,5,1,5,
{16}
1,8,7,6,
{24}
3b,2,1,8-5[16:1],7,6,5,
{16}
4bv1[16:1]/8b,,,,,,6,7,8qq5[4:3],,,,1,,,,1,,,,1,,,,1,,,,1,,2,,3/7,,,4/8,,,1/5,,
{24}
4/8,3/7,2/6,
{16}
1pp4[4:3]/5,,6,,,,7,,,,8,,,,8,,,,3,6,4,5,
{24}
3,2,1,8,7,6,
{32}
1,2,3,4,5,6,7,8,
{16}
1b,,,,,,
{32}
8h[64:7],,4h[64:15],,7,6h[64:21],,,,,3,2h[64:9],,,,,3/7,4p8[8:1]/8p4[8:1],
{16}
,,,,,,,,,5,6,7,8,
{32}
1b,8,7,6,5,4,3,2,
{16}
1b,,,,
{12}
2/5,3,4,5/3,4,5,6/4,5,6,
{16}
7/4,,1-5[16:1],,1-7[16:1],,1-4[16:1],,1-6[16:1],,1-3[16:1],,1<3[8:1],,1,,1b,,2,,3,5,4,6,2,8,1,4,
{24}
2,3,2,
{16}
8,1,
{24}
7,2,7,
{16}
3,6,4,5,3,7,1b,8,
{24}
2b,7,2,
{16}
8b,1<6[16:1],6,1b,,,
{64}
A2,D2,A1,D1,A8,D8,A7,D7,A6,D6,A5,D5,
{32}
A4,,,,,3b,2,1,8,7,6,5,4b/1bh[8:1],,,,,3,4,5,6,7,8bh[8:1]/5b,,,,,,6b,5,4,3,2,1b/4b,,,,,,
{24}
8,5,7,4,6,3,
{16}
2,6,3h[8:1],,
{32}
,,,,8,7,6,5/3,2,1,8bh[8:1],,,,,1,2,3,4/6,7,8,1bh[8:1],,,,,,,8,7,6,2/5,1,8,7bh[8:1],,,,,,
{16}
5,,2b,5,3,6b,4,8,2b,7,1b/8b,,,,
{24}
1,8,1,8,1,8,1,8,1,8,1,8,1,8,1,8,1,8,
{16}
2b/7b,,,
{24}
,5,5,5,5,5,5,5,5,5,5,5,5,5,5,5,5,5,5,
{16}
4b/6b,,,,
{24}
2h[48:1],4h[48:1],3h[48:1],6h[48:1],5h[48:1],7h[48:1],1h[48:1],8h[48:1],2h[48:1],1,8,7,6-3[16:1],5,4,3,2,1,
{16}
8/6,,,,4,5,5,5,4,,4,5,5,6,5,5,
{24}
4,3,2,
{16}
8,1,1,2,1,1,8,1,1,2,1,1,8,
{32}
7,6,5,4,
{16}
2,3,3,4,3,3,2,3,3,4,3,3,2,4,1,5,8,,1/7,,8,8,8,,1,1,1,1,1,
{32}
2,3,4,5,1,8,7,6,
{16}
5<8[16:3],,,,1,2,3,4,1,2,3,4,1/5,2/6,3/7,4/8,5/1,,6/7,,3/2,,4/5,,1b/8b,,,1b/8b,,,4h[16:1],
{32}
8,7/3,6/2,5/1,
{16}
4h[16:6],,8x,,,,
{32}
8,1/5,2/6,3/7,
{16}
4h[8:3]/8,,8b,,,,
{24}
1,2,3,4h[8:1],,,1,2,3,4h[8:1],,,
{32}
8,7,6,5h[32:3],,,8,7,6,5h[32:3],,,8,7,6,5,,
{16}
2,1,1,1,8,1,1,1,2,8,1,1,2bh[8:1]/8bh[8:1],,,,4/3,,3/2,,2/1,,1/8,,2b/7b,,,2b/7b,,,
{32}
2/6,3/7,4/8,1/5,6,7,8,1,2,3,4,5,6bh[8:1]/2bh[8:1],,,,,,,,,2,1,8,7,6,5,
{16}
4b/3b,,,,,3h[64:1],,7h[64:1],,2h[64:1],,8h[64:1],,1,,,1,,,,,
{24}
3,2,1,8/7,6,5,
{32}
1/4,8,7,6,5/1,4/8,3/7,2/6,
{16}
1b-4[16:1]/5bh[4:1],,,,,,,,1>3[8:1],,A5h[2:1],,1,,E6h[4:1],,1<7[8:1],,
{64}
,E5/B5,B4,B3,
{16}
E3,1,,A5h[4:1],,1-4[8:1],,
{64}
,D5,A4,D4,
{16}
A3,1-6[8:1],,A5h[4:1],,1>4[8:1],,
{64}
,E6,B6,B7,
{16}
E8,1,,,,8<6[8:1],,A4h[2:1],,8,,E4h[4:1],,8>2[8:1],,
{64}
,E5/B4,B5,B6,
{16}
E7,8,,A4h[4:1],,8-5[8:1],,
{64}
,D5,A5,D6,
{16}
A6,8-3[8:1],,A4h[4:1],,8<5[8:1],,
{64}
,E4,B3,B2,
{16}
E2,8,,,,1,4,3,6,5,8,2,7,
{32}
1bx,2,3,4,
{16}
5h[16:3],7bx,,8,1,,
{32}
4bx,3,2,1,
{16}
8h[16:3],6bx,,5,4,,
{32}
5bx,4,3,2,
{16}
1h[16:3],8bx,,7,6,,2bx,7,5,6bx,3,4,8h[16:1],,2bx,4,3,6bx,5,7,1h[16:1],,
{24}
2bx,3,4,6,7,8,2bx,3,4,5,6,7,
{32}
1bxw5[16:1],2,3,4,5,6,7,8,
{16}
1b,,,,2/4,,1/8,,7/5,,3/6,,8h[16:2]/A4h[16:2],,
{64}
,D4,A3/7,D3,A2/6,D2,A1/5,,
{16}
,,2,7p2[16:3],
{32}
1bx,2x,3x,4x,5x,6x,7bx,,
{16}
,,6x,7x-4[16:1],8bx,,,7bx,,,,,
{32}
2,3,4,,8,,1,,7,6,5,,1,,8,,1,2,3,4,5,6,7,8,
{16}
1b>4[16:3],,,,6,7,8,1,
{24}
5,6,7,8,1,2,
{16}
3b/7b,,,,,,,,5,4,5,6,5,4,5,6,5,4,5,6,5,4,5,6,5,4,5,6,5,4,5,6,5,4,5,6,5,4,5,6,7bx/8bx,,1bx/2bx,,
{32}
4,3,2,1,8,7,6,5,8,7,6,5,8,7,6,5,4,3,2,1,8,7,6,5,4,3,2,1,8,7,6,5,8,7,6,5,8,7,6,5,4,3,2,1,8,7,6,5,4,3,2,1,8,7,6,5,
{16}
8b/4b,,,
{32}
,3,,5,,4,,6,,,
{16}
2,4,4,4,7,5,5,5,3,4,4,4,6,5,5,5,1-5[16:1],1,1,1,1b,,,3,2b/4b,,,7,6b/8b,,3,5,4,4,4,4,4,,2,1,3b/8b,,,5/6,4b/7b,,,1/7,8,8,8,8,8<1[4:11],8,8,8,8b,,,,E2,,,,E7,,,B4,,,Ch[8:9],,,,,,,,,,,,,,,,,,,,,,,,,,,,,,,,,,
{32}
7b,8,1,2,3,4,5,6,7b,8/4,1/5,2/6,3/7,4/8,5/1,2/6,7bs3[16:1],,
&inote_6=(200)
,,,,
{8}
,
(170){16}
