&title=バゥムクゥヘン・エンドロゥル
&artist=雨良 Amala
&first=-1.19
&des_5=心白-HW
&lv_5=13
&des=心白-HW
&inote_5=(125){4},{8},,,,,,1>6[2:1],
,,,,7,,,8<3[2:1],
,,,,2,,,1pp5[2:1],
,,,,7,,,8qq4[2:1],
,,,,2,,,{4}1>5[2:1],
5,6,7,
8<4[2:1],4,3,2,
1-5[8:1],6,7-3[8:1],2,
{1}1w5[2:1],
{4}7V53[8:1],2V46[8:1],7V53[8:1],2,
1-5[8:1],{8}8,7,6/4,5,4/2,1,
{4}8/2>6[8:1],2/6,4/8<4[8:1],8/2,
2-5[8:1],{8}6,7,{4}8<5[8:1]*-4[8:1],8,
2V46[8:1],7V53[8:1],2V46[8:1],7,
8-4[8:1],{8}1,2,3/5,4,7/5,8,
1/7<3[8:1],2,{4}7/3,{8}6/2>6[8:1],7,{4}2/8,
{1}1w5[2:1],
{4}D2/A2/E2/E3/D3/B2/8b-4[8:1],8/6,{12}7,{24}7,6,,6,{12}5,{24}5,4,,4,
{4}3-7[8:1],3/1,{12}2,{24}2,3,,3,{12}4,{24}4,5,,5,
{4}6-2[8:1],6/8,{12}1,{24}1,2,,2,{12}3,{24}3,4,,4,
{4}5-1[8:1],5/7,{12}8,{24}8,7,,7,{12}6,{24}6,5,,5,
{4}4b-8[8:1],4/2,{12}1,{24}1,3,,3,{12}5,{24}5,7,,7,
{4}5-1[8:1],5/7,{12}8,{24}8,6,,6,{12}4,{24}4,2,,2,
{4}8-4[8:1],8/6,{12}7,{24}7,5,,5,{12}4,{24}4,2,,2,
{4}8h[2:1],E5,{2}Ch[2:1],
{8}5-7[12:1],5,1-3[12:1]*-3[12:1],1-7[12:1],1x-5b[12:1],1x,1x,6,
7<4[8:1],8,7/2>7[4:1],1,{4}2x/7<2[4:1],E1,
{8}7-3[8:1],7,2,2,1h[8:1],3h[8:1],5h[8:1],7h[8:1],
{4}4pp4[4:1],4qq4[4:1]*qq4[4:1],{2}8xh[4:1],
{4}5-2[8:1]/7-4[8:1],5/7,{8}1>4[8:1],4-8[8:1],5,6,
7h[4:1],1,2,1/8,2/3,4/5,6/7,8/1-5[8:1],
,1,8-4[8:1],8,2-7[8:1],2,6-3[8:1],6,
1>4[8:1],2,5<8[8:1]/1-5[8:1],6,{4}5x>2b[8:1]/1x<6b[8:1],5x/1x,
{8}1h[2:1],4,,6,7h[2:1],4,,2,
{4}1V35[16:3],5<8b[4:1]*q1b[4:1],,,1h[4:3],
8,8,8z4[4:3],
{1}1,
{8}1pp1[4:1],8,{4}7/1,{8}8qq8[4:1],1,{4}8/2,
{8}1-5[8:1],2,1/7-2[8:1],8,7/3-6[8:1],4,3/8-4[8:1],7,
{4}2/8>3[8:1],6/8<5[8:1],2/8-4[8:1],8/6,
{8}5<8[8:1],6,5/1-5[8:1],2,{4}1/3,4-1[8:1],
6,5-8[8:1],3,2-5[8:1],
{8}2/8-4[8:1],7,8/1-5[8:1],2,{4}1/7-4[8:1],7/2<6[4:1],
6>2[4:1],2<6[4:1],6>2[4:1],2pp6[4:3],
{1}8h[4:3],
7p4[4:3],
2q5[4:3],
7qq3[4:3],
{2}1-4[8:1],8-5[8:1],
{1}6h[1:4]/4-8[2:1],
1-5[2:1],
{2}7-3[8:1],2-5[8:1],
5-3[8:1],4-7[8:1],
{4}7,6,5,4,
3,2,1,8,
A1/B1/D1/E1/E2/D2/7b<3[8:1],7/3,{12}2,{24}2,4,,4,{12}6,{24}6,4,,4,
{4}2>6[8:1],2/6,{12}7,{24}7,5,,5,{12}3,{24}3,5,,5,
{4}7<3[8:1],7/1,{12}2,{24}2,4,,4,{12}6,{24}6,4,,4,
{4}2>6[8:1],2/8,{12}7,{24}7,5,,5,{12}3,{24}3,5,,5,
{4}7b<3[8:1],7/3,{12}2,{24}4,6,,4,{12}2,{24}4,6,,4,
{4}2>6[8:1],2/6,{12}7,{24}5,3,,5,{12}7,{24}5,3,,5,
{4}7<3[8:1],7/1,{12}2,{24}4,6,,4,{12}2,{24}4,6,,4,
{4}1h[64:33],E5,{64},Ch[64:31],{4},{16},,,{32},1,
2,3,4,5,6,7,8,1,2,3,4,5,6,7,8,{48}1x,2x,3x,4x,5x,6x,7x,8x,1x,2x,3x,4x,5x,6x,7x,8x,1x,2x,3x,4x,5x,6x,7x,8x,
{4}1x-5[8:1],{8}1b/8-6[12:1]`Cf,8-2[12:1]*-2[12:1],8x-4b[12:1],8x,8x,3,
2-5[8:1],1,2/7-4-2[4:1],8,{4}7x/2-5-7[4:1],E1,
{8}2-6[8:1],1,7/2,8,7h[8:1],5h[8:1],3h[8:1],1h[8:1],
5qq5[4:1]*qq5[4:1],5,8/5pp5[4:1],1,{2}2xh[4:1],
{4}4-7[8:1]/2-5[8:1],4/2,{8}8<5[8:1],5-1[8:1],4,3,
2h[4:1],8,7,8/1,2/3,5/4,6/7,1/8-4[8:1],
,8,1-5[8:1],1,7-2[8:1],7,3-6[8:1],3,
8<5[8:1],7,4>1[8:1]/8-4[8:1],3,{4}4x<7b[8:1]/8x>3b[8:1],4x/8x,
{8}8h[2:1],E6,,E4,2h[2:1],E5,,E7,
8h[2:1],6,,4,{12}2,{24}2,4,,4,{12}5,{24}5,7,,7,
{64}1x,B1,C,B5,{16}A5,
E
