&title=Overturn
&artist=Mameyudoufu feat.Kanata.N
&first=0.111
&des= 曉 夜 山 刀
&lv_5=13+
&des_5= 曉 夜 山 刀
&inote_5=
(175){4},4,4,Cf,
{8}6/3,5,4,3h[4:1],{4}E7/B7,{8}5,6,
3,4,5,6h[4:1],{4}B2/E3,7,
{8}6/3,5,4,3h[4:1],{4}B7/E7,{8}5,6,
3,4,5,6h[4:1],{4}B2/E3,{8}8,8,
5/2,4,3,2h[4:1],{4}B5/E5,{8}6,7,
4,5,6,7h[4:1],{4}B4/E5,8,
{8}5/2,4,3,2h[4:1],{4}B5/E5,{8}7,3/6-8-5[2:1],
,1,{4}1-4[8:1],,6/3,
{8}7/4,7h[8:1],4,7,{4}3/8h[8:1],{8}3/8,8,
7/4,6,4/5-8[8:1],3,{2}5/4-1[8:1],
{8}2/5,2h[8:1],5,2,{4}6/1h[8:1],{8}6/1,1,
2/5,3,5/4-1[8:1],6,{4}4/5-8[8:1],{8}2,2,
{4}1V35[4:1],5V71[4:1],1V35[4:1],5,
7<1[2:1],{8}3,2,{4}1<5[4:1],3,
2-5[8:1],2/8-4[8:1],8/1-5[8:1],{8}1/6,7s3[4:1],
,2,{4}1q5[8:1]*p5[8:1],,7x/3x,
{1}4/5<4[2:7],
3xh[2:1],
7xh[2:1],
1xh[2:1],
8/1>8[2:7],
7xh[2:1],
3xh[2:1],
5s1b[2:1],
{4}7/2h[4:3],6,5,4,
5pp8[4:3],{8}3,3h[8:1],,2h[8:1],,1,
{4}1pp4[4:3],8h[8:1],7h[8:1],6h[8:1],
5V71[2:1],{8}3,3h[8:3],,,,2,
{4}2>3q4<5[2:1],{8}6,6h[8:3],,,,7,
{4}7<6p5>4b[2:1],{8}3,3h[8:1],,2h[8:1],,1,
{24}1b/5b,6,{12}7h[6:1],{24},,,,,8b/4b,3,2h[6:1],,,,,,,1b/5b,6,{6}7h[6:1],
{24},,,8b/4b,3,2h[6:1],,,,{8}5,{2}5w1[8:1],
{1}7pp2[4:5]/3pp6[4:5],
{8},,,,,,5/1,3qq3[8:3]/7qq7[8:3],
,,,,,,4/8,6V47[8:3]/2V83[8:3],
,,,,,,{4}8/4,
{1}2qq7[4:5]/6qq3[4:5],
{8},,,,,,4/8,6pp6[8:3]/2pp2[8:3],
,,,,,,5/1,3-6[8:1]/7-2[8:1],
,,,8V64[4:1]/4V28[4:1],,,,,{1}E7/B6/B7/Ch[4:15],
{8},,,,,,,,E3/B3/B2,
,,,,,,E1/B1/B8,
,,,,,,,,{4}1/8-6v1V75[4:3],
2,{16}3,,,3,,,{8}3,
{4}4-2v5V31b[4:3],6,{16}7,,,7,,,{8}7,
{16}E6,E5,E4,E3,E2,E1,E8,E7,E6,E5,E4,E3,E2,E1,{8}Ch[2:1],
,,,E7/E3,,,{4}5<8[8:1]/1>4[8:1],
5b/1b,{8}7x/5x,1,2/4,8,5x/7x,6<1[8:1],
,2/6v3[8:1],,6/8,,7,8x/1x,2,
{4}4/3h[4:1],{8}5x-1[8:1],7-4[8:1],5,7,,8pp4[8:3],
,5,5x,6,{4}7-3[8:1]*-5[8:1],7x,
{8}2/4,8,7x/5x,1,2/4,6,7x/5x,8-6[8:1]*-5[8:1],
,8-2[8:1]*-3[8:1],,8,,6,7x/5x,8,
2-6[8:1],4x-7[8:1],2x,4,,1,8x/2x,3,
{2}4/5-1-7-4[8:3],{16}3bx-1b[16:1]*-8b[16:1],,,3bx,,,,,{8}8/2,
5,7x/1x,4,8/2,5,7x/1x,8-2[8:1],
3,8V64[16:3],4x,8,3,3,{16}2x/1x,8,7,6,
{4}5/3,{16}8x/2x>4[8:1],,,1,{8}2-6-4[4:1],8,2x,7,
,5/2,{16}4x<7[8:1],3,,3,{4}4,{16}8x/1x,2,3,4,
{4}6/5,{8}5x/3x,8,6/4,1>4[8:1],8x,7/1,
,6-2[8:1]/5-1[8:1],{4}6x/5x,{16},,7,8,{8}7x,6/1,
5<8[8:1],4>1[8:1],5x,4,,7-3[8:1]/2-6[8:1],8x/1x,7/2,
{16},,4,5,{8}4,6,{4}6b-3[8:1]/2b-7[8:1],6b/2b,
{192}1bxp4V62b[8:5],8xq5V37[192:119],{4},,,{16},,,{64},,,{192},{16}1,
8,1,8,1,8,1,8,1-5[8:1],8,1,8,{4}A1f,
{16}7,4,6,3,5,2,4,1h[16:3],,,{8}3-8[8:1],2,4h[4:1],
,7-3[8:1],8,1v4-2[4:1]*v6-8[4:1],{16},,,,,,,,1,
7,1,7,2,6,3,5h[16:3],,,2,4-8[8:1],{8}2,{16}6,4,
,,7,1-6[8:1],{8}7,{16}2,1,,,{8}3,{16}1/7,2,3,4,
{8}5/6-2[8:1]*-1[8:1],4/7,{4}6,{8}3v8[8:1],7<4[8:1],3,7,
,2/6,{4}2v8[8:1]/6-8[8:1],6bv4[8:1]/2b-4[8:1],2b/6b,
{8}1/7,7,2/5,{16}3,4,2<7[8:1],4,{8}3,5-1[8:1],5,
3<6[8:1],3,8,8,{16}7bh[8:1]/5bh[8:1],,,2bh[8:1]/4bh[8:1],,,{8}1b/8b,
7-5[8:1],4,7-3[8:1],{16}2,2,,,{8}1<6[8:1]*>4[8:1],2/8,1b,
{16},,5,3,6,4,{8}8h[8:1],{16},7h[8:1]/5h[8:1],,,{8}3/4,2/5,
{16}1/6-1[8:1],,,8,1-6[8:1],2,3,4h[16:3],,,,,{8}7/3,{16}2/6,6/2h[16:3],
,,8,1,{8}8,7-4[8:1]/2-5[8:1],,2b/7b<6q7[8:7],,7b/2b>3p2b[8:5],
,,,,,,,1>7[2:1]/8<2[2:1],
,,,,,,{4}1-5b[8:1]/8-4b[8:1],
{32}1x/8x,Cf,,,,,,,{4}2/7,{8}2-4[8:1],6-8[8:1],2v8[8:1],6v4[8:1],
2,6,{4}1-5[8:1]*-6[8:1],1,{8}3/8,2,
{4}1/6V83[4:1],{8}2,4>1[8:1],,8,6,2/4q7[8:3],
,Cf,,,{4}1w5[8:1],1b,
3/8<3[4:1],{8}2,1,{4}8-2-4-6[4:1],{8}6,7,
{4}8<3[4:1],{8}2,1-5[8:1],,1-4qq4[8:3]*-6pp6[8:3],,,,,,3>8[8:1]/7<4[8:1],
,3-6b[8:1]/7-2b[8:1],,3b/7b,
,8b/4b,{4}2b-4[8:1]/6b-8[8:1],6bv4[8:1]/2bv8[8:1],2b/6b,
7/3qq2[4:1],E5/E6/B5,{8}7-5[8:1],3-1[8:1],7v1[8:1],3v5[8:1],
7,3,{4}8-4[8:1]*-3[8:1],8,{8}6/1,7,
{4}8/3V16[4:1],{8}7,5<8[8:1],,1-5[8:1],,4>1[8:1],
,8,6,2/4w8[8:1],,Cf,,,{4}2/6<1[8:1],
{8}4,4>1[8:1],,5w1[8:1],,5,
,7/3,,5/1,{4}1>4[8:1]/5<8[8:1],1/5,
{8}2b/5b,{16}3,4,{8}3,7b/4b,{16}6,5,{8}6,1b/5b,{16}2,4,
{8}3,8b/4b,{16}7,5,{8}6,{16}1b/5b,2,3,4,1/5,8,7,6,
{8}5/1,5v8[8:1]/1v4[8:1],6/2,{384}5bpp3b[4:15],1bpp7[4:15],
E
