&title=Ops:Limone
&artist=Reku Mochizuki
&first=-0.03
&lv_5=14
&des_5=pelecanuski
&inote_5=
(210){4},,,5,
{1}6-3-7[4:3],
{4},5,{2}5h[2:1],
{4},,,4,
{1}3v1V35[4:5],
{8},,,,6,,,5h[8:7],
,,,,,,{4}6,
{1}7v4V68[4:5],
{2},5h[8:3],
{4},C,{8},,6,5,
4,,,C,,,{4}B7,
B6,B2,{2}Ch[4:5],
{4},,,5,
{8}7/4h[8:1],,,3h[8:1]/6h[8:1],,,{4}2pp3-1[1:1],
5,6,{8}7,,,7h[8:7],
,,,,,,{4}C,
{8}6/3h[8:1],,,7h[8:1]/5h[8:1],,,{4}1v3-5[2:1],
5,6,{8}7,,,8h[8:5],
,,{4}4,,C,
5,5,C,3,
3,B7,7,7,
B2/B3,4/5,3/6,{8}4,5,
{4}6-1[8:1],{8}6,2-6[8:1],,2,{4}8-4[8:1],
8,7/2,{12}1/8,2,3,4,5,6,
7,8,1,2-6[8:1],{24},,,,,,,,,,{8}5,5,
4,{16},,,,2,4,{4}2,7,
7x,6,{8}6x>3[4:1],,,2h[8:5],
,,,,,,5,4,
3,{16},,,,4,6,{4}4,5,
5/2,3,1q5[4:1],{8}7,6,
,,{4}6b-1[8:1]/2-5[8:1],6/2b,{8}4,6,
8,{16},,,,3,4,{4}3,6,
6,5/7,{8}6p5>2[4:3],,,4h[8:5],
,,,,,,5,5,
{4}4,{8}4,3,{16},,4,6,{4}4,
5,4b,7-4[8:1],{8}7,2-5[8:1],
,2,{4}8<5[8:1],8>3[8:1],8x,
{8}4,5,3,6,{16}3,5,{8}3,4/6,5,
3,6,{4}3/5,6h[4:1],B8/B1,
B5/B4,5h[4:1],B8/B1,B7/B6/B5/B4/B3/B2,
{8}5,2,5,6,{16}3,5,{8}3,6/4,2,
4,2/5,{4}4,{32}8x,E8,E7,A6,,,,,,,,,1x,B1,C,B5,
A5,,,,,,,2x,,E3,E4,A4,,,,,{4}6,5/4,
{8}6,4,5/2,3,{16}4,6,{8}4,5,3,
6,4,{4}5/3,{8}4h[1:1]/E8/B7,,,E2/B2,
,,{4}B7/E7/A6/E6/C/B6,{8},,5,4,
3,5,{16}4,6,{8}4,3,4,{4}5/3,
6/4,7/5,{8}8,8,1,1,
{16}2,3,{8}4,{4}5-1[8:1],8-4[8:1],8,
6h[2:1],5,5,7h[2:1],
{16}3,,,3,{4}4,{8}5-2[8:1],,,7-4[8:1],
,,{4}3-8[8:1],3,{8}6,6,
{4}6<1[4:1],1>4[4:1],4<7[4:1],8,
{8}8h[4:1],,,7,{4}6-2[8:1],6/4-8[8:1],
4/3,1-6[8:1]*-5[8:1],1,3b/7,
{8}B7/B6,,,5,{4}B2/B3,4,
B8/B1,{8}7/5,6/4,5/3,,,3/2,
,,{4}5/6,{8}4,3,6/2,4,
5,4,3,2,{16}1,8,{8}2,{16}4,5,6,7,
{4}1-4[8:1]/8-5[8:1],1b/8b,{12}6,4x,6,2,4x,2,
6,4x,6,4b-6[8:1]*-2[8:1],,,{4}4b-8[8:1],4b,
{1}Cf/B8/B7/B6/B5/B4/B3/B2/B1,
{8},,6,5,{2}4h[4:5]/C,
{4},,,,5h[1:1]/E8/B7/B8,
,,4,
6,7/C,8,{8}8,6/C,
,6,{4}4,{8},4,,,{4}6h[8:1],
{8}B8,B2,{4}B4,5h[8:1],
{8}B7,B1,{4}B3,4h[8:1],{8}B6,B8,
{4}B2,{16}4,5,{8}6,4,6,4,5,
6/4,6,4,6,{4}3,{16}3,6,{8}4,
2,5,{4}3h[4:1],{8}6,6,5,5,
4,3,{4}2/Cfh[2:1],{16},,,,,,,,1b-4[8:1],
5x,1,5x,{8}1,8-5[8:1],,8,{4}4V28[4:1],
8-6b[8:1],5,{16}8-4[8:1],5x,8,5x,{8}8,3-8[8:1],
,3,{4}5v8V64b[8:3],5,3,
{16}2x/6xh[4:1],1,8,7,,,{8}4h[4:1],,7,{4}6-1[8:1],
2-6[8:1],2x,8h[4:1],{8}5,6h[4:1],
,7,{4}8-4[8:1],2>5[8:1],{8}2,{16}6,7,
{4}8-5[8:1],8,{16}6,4x,6,4x,{4}6-3V57b[8:3],
2,2,8-6[8:1],8-3[8:1],
8-4[8:1],8x,{8}3,3,4b/2,3,
4/2,{16}3x,3,{8}3,2/4,{16}3x,3,{8}3,{4}5/2b,
1/6b,2/5,{24}3,4,3,4,3,4,3,4,3,4,3,4,
{12}3,5bxh[6:1]/2bxh[6:1],{24},,,,,,,,,,,,,,{8}3/5,6,
{4}4h[8:1]/7-1[8:1],7-5[8:1],7/4,3-8[8:1]/6-4[8:1],
3/6-1[8:1],{8}6,4,{4}2-6[8:1],1-5[8:1],
8-4[8:1],7x-3[8:1],7x,6h[8:1],
4-8[8:1]/1-5[8:1],4/1<5[8:1],1,1-4-6[4:1],
6-8-2[4:1],7,5-2[8:1],{8}5,6,
{4}7-2[8:1],5-8[8:1],5b,{8}4,5/3,
{4}2-7b[8:1]/6-3[8:1],2-5[8:1],2/6,7-1-3[4:1],
3-5-7b[4:1],7,3,{8}5/2,7,
{4}1w5b[8:1],1,7bx/3,{8}4/5,6/4,
{4}7/4-2[8:1],{16}6h/4h,7h,{8}8-6[8:1],{16},,2h/8h,3h,{4}4-1b[8:1],
{8}4,5h[4:1],,3,7h[4:1]/5h[8:1],,,3h[4:1]/4h[8:1],
,,{4}7b/2,6/3b,5h[8:1]/4h[8:1],
{12}3b,4,3,6b,5,6,3,4,2,6b,5,7,
4b,3,2/5,6,7,8,3,3,5,7,7,5,
{16}3,4,3,5,{12}1,2,3,{16}4/1,5,6,7,{8}8/5,4,
{12}2b,4,2,5b,2,5,3,5,3,2b,4,3,
6b,4,7,1,4,2,{16}6,8,6,1,6,2,6,3,
4,5,6,7,8,1/5,2/6,3/7,4/8,5,6,7,8,1,2,3,
{12}7b,5,7,3b,5,3,7,4,6,1b,4,2,
6b,4,6,2,4,2,{16}8,7,6,5,8/4,1,2,3,
6,7,8,1,5,6,7,8,4,5,6,7,{8}4/8,2,
{12}7b,5,3h,5b,1,7h,3,5,1h,6b,2,4h,
8bh,6,2,8,4,2h,{16}5,6,7,8,1,2,3,4,
5x,6x,{24}3x/7x,4x/8x,1x/5x,{4}2x/6bx-2[8:1],6,8-5[8:1],
8-3b[8:1],8,{16}1x,6x,{8}1x,6/1,1,
1/6v3[8:1],1,1/6,1,1/4<7[8:1],1,1/4,1,
{4}1-4[8:1],1b-6[8:1],1bw5b[8:1],Cf,
E
