&title=転生林檎
&artist=ピノキオピー
&first=0.027
&des=「自分」が消えちゃったの?
&des_6=「自分」が消えちゃったの?
&lv_6=13+
&inote_6=(145){1},
{16}3xh[16:7]/5xh[16:7],,,,,,,,,,4,,6,,5,,
{16}6xh[16:7]/4xh[16:7],,,,,,,,,,5,,3,,4,,
2xqq7[2:1],,,,7,,,,6,,,,5,,,,
5pp8[2:1],,,,8,,,,1,,,,2,,,,
3-8[8:1],,,,A4,,,,6-1[8:1],,,,A5,,,,
7v4b[8:1],,,,3pp4qq3^4[4:2],,,,,,,,,,,,
7xpp2[2:1],,,,2,,,,3,,,,4,,,,
4qq1[2:1],,,,1,,,,8,,,,7,,,,
E2,E6,E3,E5,E4,,C/B8/B7,,A7,A3,A6,A4,A5,,B1/B2/E2,,
7x/8x,,,1x/6x,,,2x/5x,,3^1[8:1],,,,E5h[16:1],,,,
{16}
7x/8x,,16,,3,5h[8:1],,4,,37,,1/5h[8:1],,4,6,,
2x/1x,,83,,6,4h[8:1],,5,,62,,7/3h[8:1],,5,4,,
7x/8x,,16,,3,5h[8:1],,4,,37,,5/1h[8:1],,8,2,,
5xh[4:1]/6,,,,8h[4:1],,,,3^1[8:1],,3,,E5h[16:1],,,,
{16}
6,5,6,,3,4,3,,5-1[8:1],,,,2,,,,
3,4,3,,6,5,6,,4-8[8:1],,,,7,,,,
E2,E3,E4,,E8,E7,E6,,D2,D3,D4,,D8,D7,D6,,
A1,A2,A3,A4,A5,A6,A7,A8,1xw5[8:1],,,,1,,,,
3x,4,3h[8:1],,5,4,5h[8:1],,3,4,2h[8:1],,8,8,,,
7x,5,6h[8:1],,4,5,4h[8:1],,6,5,7h[8:1],,1,1,,,
2xq6[8:1],,,,7p3[8:1],,,,1-5b[8:1],,,,8b,,,,
7x/8x,,,1x/6x,,,2x/5x,,3^1[8:1],,,,E5h[16:1],,,,
{16}
6,5,7,,3,4,2,,5-1[8:1],,,,3,,,,
2,4,3,,7,5,6,,4-8[8:1],,,,6,,,,
3,4,2,,6,5,7,,2,4,3,,7,5,6,,
4,4,8,8,2,2,6,6,4q8[8:1]*p8[8:1],,,,4,,,,
7x,5,6h[8:1],,4,5,3h[8:1],,6,5,7h[8:1],,1,1h[8:1],,8,
2x,4,3h[8:1],,5,4,5h[8:1],,3,4,2h[8:1],,8,8h[8:1],,1,
7xp3[8:1],,,,1q5[8:1],,,,8-4b[8:1],,,,1b,,,,
7x/8x,,,1x/6x,,,2x/5x,,3^1[8:1],,,,E5h[16:1],,,,
{16}46,,3,5,1,,6,4,8<3[4:1],,8,,2q6[8:1],,,,
,,,,7,,1,,8-5b[8:1]/7-5b[8:1],,,,B6f,,,,
{16}53,,6,4,8,,3,5,1>6[4:1],,1,,7p3[8:1],,,,
,,,,2,,6,,8-5b[8:1]/7-5b[8:1],,,,B6f,,,,
2x/4x-8[8:1],,3,5,4,,6,6,1w5[8:1],,,,,,,,
7x/5x-1[8:1],,6,4,5,,3,3,8w4[8:1],,,,,,,,
2x/4x,,3,5,4,,6,4,5,,46,,37,,28,,
1bs5-7-3-1b[8:5]/Ch[8:6],,,,,,,,,,,,,,,,
{16}
1bx>7[4:1],,,,8xv2[16:2],,,,1x>7[4:1],,,,8xv2[16:2],,,,
1x>7[4:1],,,,8xv2[16:2],,,,1x>7[4:1],,,,8x-4[8:1],,,,
Cf,,,,1^4[8:1],,1,,5^8[8:1],,5,,1^4[8:1],,1,,
5^8[8:1],,5,,1^4[8:1],,1,,8,,8,,1-6[8:1]/5-2[8:1],,,,
15,,,,3-8[8:1],,7-4[8:1],,,,,,1-4[8:1],,5-8[8:1],,
,,,,3^6[8:1],,7^2[8:1],,3-7[8:1],,7,,3v4[8:1]*v5[8:1],,6,,
,,,,1^4[8:1],,,5,5/1b,,,,2^5[8:1],,,6,6/2b,,8,,
5p4[4:1]/7,,6,,53,,,,1x,2,3,4,
{16}
8bx<2[4:1],,,,1xq7[16:3],,,,8x<2[4:1],,,,1xq7[16:3],,,,
8x<2[4:1],,,,1xq7[16:3],,,,8x<2[4:1],,,,1x-5[8:1],,,,
1,,,,8^5[8:1],,8,,4^1[8:1],,4,,8^5[8:1],,8,,
4b^1[8:1],,4,,8^5[8:1],,8,,1,,1,,8v3[8:1]/4-7[8:1],,,,
84,,,,6-1[8:1],,2-5[8:1],,,,,,8-5[8:1],,4-1[8:1],,
,,,,6^3[8:1],,2^7[8:1],,6-2[8:1],,2,,6,,,,
1-4[8:1],,,,8-5[8:1],,,,3^6[8:1],,,,7,,,,
28,,71,,45,45,,7,B1,B2,B3,B4,B5,B6,B7,B8,
{4}
1xqq2^4[4:2],5,5,5,5/6p2v5[4:2],1,1,1,
1/2V41-5[4:2],8,8,8,8q2^4[2:1]/7,5,5,5,
5/6-1[8:1],5,4/3-8[8:1],4,1/7-4[8:1],1,8/2-5[8:1],{8}8,8v7[8:1],
{8},1v2[8:1],,8,,{16}4,5,4,,26,,3,,48,,6,57,,28,,34,,71,,3,24,,
{16}
1bx>7[4:1],,,,7x-5-3-1b[4:1],,,,1x>7[4:1],,,,7x-5-3-1b[4:1],,,,
1x>7[4:1],,,,7x-5-3-1b[4:1],,,,1x>7[4:1],,,,8x-4[8:1],,,,
Cf,,,,1^4[8:1]/5,,2,,1/5^8[8:1],,6,,5/1^4[8:1],,2,,
1/5^8[8:1],,6,,5/1^4[8:1],,2,,1/7h[4:1],,,,{32}5xbw1[32:3],4x,3x,2x,1x,8x,7x,6x,
{16},,,,3-8[8:1],,7-4[8:1],,3,,7,,1-4[8:1],,5-8[8:1],,
1,,5,,3^6[8:1],,7^2[8:1],,3-7[8:1],,7,,3>6[8:1]*p5[8:1],,6,,
,,,,1^4b[8:1],,,5,5b/1b,,,,2^5b[8:1],,,6,6b/2b,,8,,
5pp4[4:1]/7,,6,,53,,,,1x,2,3,4,
{16}
8bx<2b[4:1],,8x,,2x-4-6-8b[4:1],,2x,,8x<2b[4:1],,8x,,2x-4-6-8b[4:1],,2x,,
8x<2b[4:1],,8x,,2x-4-6-8b[4:1],,2x,,8x<2b[4:1],,8x,,1xq5v2[4:1],,,,
1,,,,8-5[8:1],,4-1[8:1],,8,,4,,6,,2,,
7b/8b,,,2b/5b,,,3b/8b,,5b/6b,,7,,{32}1x-5[32:3],2x,3x,4x,5x,6x,7x,8x,
{16},,,,6-1[8:1],,2-5[8:1],,6,,2,,8-5[8:1],,4-1[8:1],,
8,,4,,7^4[8:1],,3^8[8:1],,7-3[8:1],,3,,7>4[16:3],,,,
7bx/6bx,,,,5-1[8:1],,,3,5b/3,,,,6-1[8:1],,,4,6b/4,,2,,
35,,4,,3/7x,6,5,4,1x,2,3,4,
{24},,,,,,,,,,,,,,,E3,B3,B6,E7,,,,,,
{16}
4xV28^3[2:1],,,,8,,,,7,,,,6,,,,
5x^8V64[2:1],,,,4,,,,3,,,,2,,,,
1-4[8:1],,,,A5,,,,8-5[8:1],,,,A4,,,,
3-7[8:1],,,,5^8[8:1],,,,4^1[8:1],,,,C,,,,
5xV71^6[2:1],,,,1,,,,2,,,,3,,,,
4x^1V35[2:1],,,,5,,,,6,,,,7,,,,
8-4[8:1],,,,3^6[8:1],,,,7^2[8:1],,,,C,,,,
46,,,37,,,28,,1-5[32:3],,,,C,,,,
E
