&title=歯車仕掛けのダンスホール
&artist=KagomeP; 結月ゆかり
&first=0.06
&des=な么——くるくるくるくる~~
&clock_count=4
&lv_5=13
&inote_5=(112)
{1},
{16}D6,E5,D4h[384:1],,D6,E5,D4h[384:1],,
6xqq5^7[16:3],,6x,,,,,,
{24}3h[24:2],,,,,E1,,,,3h[24:2],,,,,E1,,,,6xh[8:1]/4xh[8:1],,,,,,
3h[24:2],,,,,E1,,,,3h[24:2],,,,,E1,3x,,,1x/2x,,,,,,
3h[24:2],,,,,E1,,,,3h[24:2],,,,,E1,Ch[24:3],,,,,,,,,
1x,,,1x,,,1x,,,1x,,,7x-5[12:1]/8xV64[16:2],,,,,,,,,,,,
3h[24:2],,1,,,E8/B8,,,,3h[24:2],,1,,,E8/B8,,,,E5h[8:1],,,,,,
3h[24:2],,1,,,E8/B8,,,,3h[24:2],,1,,,E8/B8,,,,E6h[8:1]/B6h[8:1],,,,,,
3h[24:2],,1,,,E8/B8,,,,3h[24:2],,1,,,E8/B8,,,,A7h[8:1]/E8h[8:1]/B7h[8:1],,,,,,
4x/6x,,,3x/5x,,,4x/6x,,,3x/5x,,,5bx/6bx,,,8bx/4bx,,,3xb/4bx,,,5bx/1bx,,,
{24}7bh[8:1],,,5,,6,2h[8:1],,,4-7[8:1],,,5,,,{16}2,2,,,54,,
{24}3h[8:1],,,4,,2,7h[8:1],,,5-1[8:1],,,4,,,{16}7,7,,,56,,
{24}7h[8:1],,,5,,7,1h[8:1],,,4-8[8:1],,,5,,,{16}2,2,,,1-5[8:1],,
5-3[12:1],,,,7xV15-3b[8:3],,7x,,,,,,,,,,
{24}2-5[12:1],,,4,,4,2,,,8V25[16:3],,,5,,,{16}3,3h[16:3],,,6,,
{24}7-4[12:1],,,5,,5,7,,,2V83[16:3],,,4,,,{16}6,6h[16:3],,,4V62[8:2],,
6,,,,8xV26-4b[8:2],,8x,,,,,,,,3x,,
{24}43,,,35,,,36,,,37,,,21,,,78,,2,4,,1,8,,5,
5b-8[8:4]/7,,,,,,,,,,,,,,,,,,5,,,,,,
5-8b[8:4]/8,,,,,,,,,,,,,,,,,,5,,,,,,
5<4[8:10]/8,,,,,,E1,,,,,,C,,,,,,E5,,,,,,
E3,,,,,,E1,,,,,,E7,,,,,,4xh[8:2]/E5,,,,,,
6,,,6,,,7/D5,,,7,,,8/E4,,,8,,,1/D3,,,1,,,
3/B4/E5,,,3,,,2/E6/D6,,,2,,,1/E7/A6,,,1,,,8/B7/E7,,,8,,,
6h[8:1]/5,,,4,,,2h[8:1]/4,,,6,,,8h[8:1]/4,,,2,,,
{32}1x-6b[12:1],,5x,,,,{32}A5,B4,
{24}E3hf[384:1],,,,,,,,,,,,5w1[8:1],,,,,,,,,,,,
3h[8:1]/4b,,,1,,3,4h[8:2],,,E1,,,5h[8:2],,,E1,,,6h[8:1],,,E1,,,
6h[8:1]/5,,,8,,6,5h[8:2],,,B1,,,4h[8:2],,,B8,,,3h[8:1],,,E1,,,
3h[8:1]/4,,,1,,3,4h[8:2],,,E8,,,5h[8:2],,,E2,,,6h[8:1],,,E1,,,
1bx/5bx,,,2bx/6bx,,,3bx/7bx,,,4bx/8bx,,,
{16}1bx^6[16:1]/5bx^2[16:1],,,1x-5[16:1]/5x,,,1x,,
{24}6h[8:1],,,5,,6,4h[8:2],,,E2,,,5h[8:2],,,E8,,,3h[8:1],,,E1,,,
2h[8:1]/4,,,4,,2,6h[8:2],,,E8,,,4h[8:2],,,E2,,,7h[8:1],,,E5,,,
7h[8:1]/5,,,5,,7,2h[8:2],,,E4,,,4h[8:2],,,E8,,,6h[8:1],,,E1,,,
1bx/5bx,,,8bx/4bx,,,3bx/7bx,,,6bx/2bx,,,{16}1bxw5[16:1]/5bx,,,1x,,,Cf/B7/B3/A7/A3,,
1^4[8:1],,4^7[8:1],,7,,8,,1^6^3[8:2],,6,,3,,2,,
1h[8:2],,5,,7pp4[16:4],7,,72,,,,,3,,45,,
6^3[8:1],,3q8[8:1],,8,,1,,3p1[16:3],,8,,7,,6,,
5,,1/8h[8:1],,1^4b[12:1],1,,8,1b-5[16:2]*^6[8:1],,,,,,,
{328},,,,,,,,,,,,,,,,,
{16}8^5[8:1],,5^2[8:1],,2,,1,,8^3^6[8:2],,3,,6,,7,,
8h[8:2],,5,,2V83-5[16:4],2,,28,,,,,6,,54,,
3-6[12:1],,4,,7-3[12:1],,8,,2V48[12:2],,1,,7,,6,,
8x/4x,,1x/5x,,2/6,,
{64}3/7,,,,,,,,,{128}8,4,{64},,,,,,,,,
7h[24:2]/5h[24:2],,,,,,,,,,{128}3v4b[8:2],4h[24:3],{64},,,,,,,,,,,,5xh[32:1],,,,,,,,,,,,,,
{24},,,,,,
3xh[8:1]/4xpp6[8:3],,,,,,3h[8:1],,,,,,3h[8:1],,,,,,3h[8:1],,,,,,
2h[8:1]/4pp5[8:3],,,,,,2h[8:1],,,,,,2h[8:1],,,,,,2h[8:1],,,,,,
1h[8:1]/4pp4[8:3],,,,,,1h[8:1],,,,,,1h[8:1],,,,,,1h[8:1],,,,,,
4V62[8:2]/8h[8:1],,,,,,8xV26-4b[8:3],,,,,,,,,,,,,,,,,,
{24}5^8[8:1]/4,,,4,,4,5,,,3^6[8:1],,,81,,,{16}2,2,,,3,,
{24}6^1[8:1]/4,,,3,,5,6,,,3-6[8:1],,,12,,,{16}2,2,,,3,,
{24}7^2[8:1]/5,,,4,,5,7,,,4p6[8:1],,,13,,,{16}2,2,,,3,,
{24}8^5[8:1]/5,,,3,,1,8,,,2,,,1bxq5[8:1],,,6^1[8:1],,,1x<2b[8:3],,,6x,,,
E5h[8:2]/B4f/B5,,,,,,,,,,,,{16}D6,,,E5,,,D4,,B7/E7/E3/B3,,,,B5/E5/E1/B1,,,,
4w8b[8:1]/C,,,,,,,,
{24}
6bh[8:1]/5b,,,8,,6,5-8[12:1],,,E7,,,4-1[12:1],,,E3,,,5,,,E7,,,
3h[8:1]/4,,,1,,3,4-8[12:1],,,E3,,,5-1[12:1],,,E7,,,4,,,E3,,,
6h[8:1]/5,,,8,,6,5-1[12:1],,,E7,,,4-7[12:1],,,E3,,,5,,,C,,,
8bx/4bx,,,7bx/3bx,,,6bx/2bx,,,5bx/1bx,,,
{16}8bx^3[16:1]/4bx^7[16:1],,,8x-4[16:1]/4x,,,B8f,,
{24}2h[8:1],,,4,,2,7-4[12:1],,,E1,,,2-5[12:1],,,E1,,,7,,,E1,,,
7h[8:1]/1,,,1,,7,3-8[12:1],,,E5/D5,,,6-1[12:1],,,E5/D5,,,3,,,E3,,,
2h[8:1]/8,,,8,,2,7^4[12:1],,,E8/B8/E1,,,1^4[12:1],,,E8/B8/E1,,,7,,,E6,,,
8bx/4bx,,,7bx/3bx,,,2bx/6bx,,,5bx/1bx,,,{16}8bxw4[16:1]/4bx,,,8x,,,Cf/B2/B6/A2/A6,,
1^4[8:1],,4^7[8:1],,7/1,7,,1,1^4^7b[8:2],,4,,7,,1,,
2^7[12:1],,3,,5pp2[16:4],5,,58,,,,,8,,18,,
7^4[8:1],,4q1[8:1],,27,2,,3,3qq5[12:3],,82,,7,,6,,
7,,8h[8:1]/1,,5^2b[12:1],5,,6,5bs1[16:2]*^8[8:1],,,,,,,,
8^5[8:1],,5^2[8:1],,2/8,2,,8,8^5^2b[8:2],,5,,2,,8,,
7^2[12:1],,6,,4V25-1[16:4],4,,41,,,,,8,,17,,
6-1[12:1],,5,,4-7[12:1],,3,,2qq4[12:3],,1,,8,,7,,
5b^8[12:1],,5b^2[12:1],,5xb,,5xb,,8b,,7b/5b,,2bV47[16:4]/1bV38[8:2],,3b/4b,,
A1/D2/A2/E2f,,,,
