&title=Lilly
&artist=Juggernaut.
&first=0
&des=Caerulea
&des_5=Caerulea
&lv_5=14+
&inote_5=(235){4},,,,{1}1p4[2:1]/8q5[2:1],
{4}7xh[4:3],{8}6,6>2[4:1],,,,,{4}6xh[4:3],
{8}8,8<4[4:1],,,,,{4}2xh[4:3],
{8}3,3<7[4:1],,,,,{4}3xh[4:3],
{8}1,1>5[4:1],,,,,2/6-8[8:1],
,,2-6[8:1],,,{4}8h[4:1],
{8}3-1[8:1],,,7-3[8:1],,,{4}1h[4:1],
5h[4:1],{8}3,4,2,1,3,8,
{4}2-6[8:1],2/7-4[8:1],7/3-7[8:1],3,
{8}5h[4:1]/1h[4:1],,,7h[4:1]/3h[4:1],,,{4}B7/B3,
{8}4h[4:1]/8h[4:1],,,2h[4:1]/6h[4:1],{16},,,,1>8[4:3],5,1,5,
{8}1,,,6h[8:3],,,,,{4}7<8[4:3],
{8}7/2,2h[8:3],,,,,{4}4xh[4:1],
{8}7,3xh[4:1],,6,2/5,2,
{4}5xh[4:1],{8}2,6xh[4:1],,3,7/4-8V24-6[4:3],7,
{1}Cf,
{12}7,8,6,2,1,3,5,4,5,4,5,4,
{4}B6/B3,7-1[4:1],7/3,{8}4,4,
{4}6,3-1[4:1],3/7,{8}6,6,
{4}4h[4:1],{8}1,3/8<4[8:3],{16},,,,4,3,2,1,
{2}8h[8:3],{4}5/1,5/2,
5/3,{8}4/7,7h[4:1]/4h[4:1],,,5,6,
{4}4,{8}5/2,2h[4:1]/5h[4:1],,,4,3,
5<8[4:1],,,2>4[4:1],{16},,,,1,8,{8}7p5[4:3],
,,,,{2}3>1[8:1],
{4}8xh[4:1],{8}6,2xh[4:1],,8,{4}7/3,
8xh[4:1],{8}2,6xh[4:1],,8,{4}1/5,
{8}2/4,{16}5,3,{8}6x,6x,,7/8,,2/1,
{16}3x,4,5,6,7,8,1,2,3/6x,5,4,3,2,1,8,7,
{4}6/4>1[4:1],{8}5,5,{4}4-7[8:1],2-5[8:1],
{8},,7,7,{2}5>2[4:1],
{8}7,1,8,8<5[4:1],{16},,,,1,2,{8}3,
{4}4h[8:1],3h[8:1]/5h[8:1],6h[8:1]/2h[8:1],{24}B2,C,{6}B6,
{8}4,8-5[8:1],,8,{4}1-4[8:1],{8}1,7-4[8:1],
,7,{4}2-5[8:1],{2}2/5>1[4:1],
{8}6,5-8[8:1],,5,{4}4-1[8:1],{8}4,6-1[8:1],
,6,{4}3-8[8:1],{2}3/8<4[4:1],
{8}7,7h[4:1],,B4/E4,{4}2/6,{8}3,3h[4:1],
,B6/E7,{4}8/4,{12}7,5,7,5,7,5,
{8}8-4[8:1],3,,2-6[8:1],{4}7,{8}5,5h[4:1],
,4,{4}4h[4:1],{16},,5,4,{4}5,
{8}3q5[2:1],,,4h[8:3],,,,,6p4[2:1],
,,5h[8:3],,,,,2q4[2:1],
,,6h[8:3],,,,,7p5[2:1],
,,3h[8:3],,,,,2,
2,4,4,3,3,5,5,
4/6,4/6,3/7,3/7,8/2,8/2,{4}1,
{16}8,1,8,1,8,1,8,1,8,1,8,1,8,1,8,1,
{24}7bx,6,5,2bx,3,4,{4}8bxh[4:1],{8}2-5[8:1],7-4[8:1],2,7,
{4}1>4[4:1],{8}4x-8[8:1]*-7[8:1],5,,,{4}1-6[8:1],
1-3[8:1]/5<8[8:1],1/5,{16}1,8,7,6,1,2,3,4,
{4}7<4[4:1],{8}4x-2[8:1]*-1[8:1],3,,,{4}8-4[8:1],
8/1-5[8:1],1,7b/4b,2b/5b-1[8:1],
{8},,8<4[4:1],2,{2}4-1[8:1]*-7[8:1],
{8}2xh[4:1],{16}5x,6,7,8,{8}1,4xh[4:1],{16}1x,8,7,6,{8}5,
{16}1,2,3,4,5/7,4,3,2,1/8,7,6,5,4/2,5,6,7,
{6}8b/1,2b/7,6b/3,4b/5,3/6b,7/2b,
{4}8b/1>8[2:1],,,1x>5[4:1],
7,8x<4[4:1],{8}3,3,{4}2xV46[4:1],
{2}7h[4:1],{8}7,4,6,5,
{4}8<4[4:1],{16}4x,3x,2x,1x,{2}8x>6[8:3],
{4}7bh[4:1],A6/E6/A5,3h[4:1],A1/E1/A8,
6bh[4:1],A5/E5/A4,2h[4:1],A8/E8/A7,
{8}1/5,2,4,3,5,{16}2x,1,{8}3,{16}5x,4,
{12}6bx,5,6,3bx,4,3,7bx,8,7,2bx>8[4:3],1,2,
,,,,,,,,,,,,{4}1/6,
2/7,{16}3/8-2[8:1],7,6,5,{4}4,
5-7[8:1],{8}5,2-5>3-8[8:3],,2,,,{4}6h[4:1],
{8}8,7,{16}8<4[4:1],1,2,3,{4}4,
1-3[8:1],{8}1,6-1<7-4[8:3],,6,,,{4}2h[4:1],
{8}4,3,5<1[4:1],4,{4}5,
2-6[4:1],{8}2,8-4-7[8:3],,,,,{4}1-3[8:1],
1-5[8:1],1,7-1[8:1]/4-2[8:1],
4/7,E8/B8/C/B3/E4,{8}6x/5x,4,5,3,
{4}7-1<6[8:3],{8}4,4h[4:1],,,{4}2-8[8:1]/5-7[8:1],
5/2,E2/B1/C/B6/E6,{8}3x/4x,5,4,6,
{4}2<8v3[8:3],{8}5,5h[4:1],,,6,7,
{4}3-6-4[4:1],{8}3,8>6[8:3],{16},,,,,,,,8,
1,2,3,{4}4,{24}6,5,4,3,2,1,{4}8<4[4:1],
{2}2h[4:1],{16}3,4,3,4,3<8b[4:3],4,3,4,
{4}3,5x>1[4:1],{12},,,,,,2bx,
3,4,7,6,5,1,2,3,8,7,6,
{16}2,3,4,5,1,2,3,4,1,8,7,6,5,4,3,2,
{12}1/5bx,6,7,4,3,2,6,7,8,3,2,1,
{16}5,6,7,8,4,5,6,7,4,3,2,1,8,7,6,5,
{12}2x,4,3,6,4,5,3x,7,5,6,4,5,
2x,1,3,8,1,7,5x,6,4,5,3,4,
{4}2-5[4:1],7,{8}8-4[4:1],2,{4}2,
1>5[4:1],5<1[4:1],,,2b/6b,
{8}3/5,5,2,4,2,3,
{4}1-5[8:1],1/4<7[8:1],4V26[4:1],4,
{8}8,8,5h[8:1],7,7,4h[8:1],5,3,
{4}4/2,5/1-5[8:1],7/1,{8}7,4,
8,8,4,4,5,5,2,2,
1,1,3,3,7,7,5,5,
{16}8,4,8,4,8,4,8,4,7,5,7,5,7,5,7,5,
{8}6h[16:1],6h[16:1],6h[16:1],6h[16:1],{24}5,4,3,2,1,8,{4}7/5-1[4:1],
{8},,,D7/E7,{4}E6,{8}D3/E3,E4,
,B8/B1,{4}C,{2}4xh[4:1]/5xh[4:1],
{8}E4,E3,,E6,{4}E7,{8}E2/D2,E3,
,E8/D8,{4}E7,{2}1xh[4:1]/8xh[4:1],
{12}A3,E4,E5,A1,E2,E3,A7,E8,E1,A5,E6,E7,
{16}A1,A2,A3,A4,A5,A6,A7,A8,{2}5xh[2:1]/A1,
2-5[4:1],8-3[4:1],
6-1[4:1],4-7[4:1],
{4}1b>8[4:5],A7/B7,,A5/B5,
,A7/B7,,A2/B2,
8b<1[4:5],A2/B2,,A4/B4,
,A2/B2,,A7/B7,
{8}1,1,8,8,2,2,7,7,
4,4,6,6,3,3,5,5,
{16}1,7,1,7,1,7,1,7,2,8,2,8,2,8,2,8,
{24}2bx,1,8,7,6,5,2x/4-8[4:1],1,8,7,6,5,{2}4,
{16}2,6,2,6,2,6,2,6,2,6,2,6-3[16:3],2-7[8:1],6,2,6,
{1}2,
{4}Ch[4:7],B1/A1,,B2,
,B3/A3,,B4,
{8}7/3,7,6/2,2,{16}4/8,7,6,5,4/8,1,2,3,
{4}4/8-4[8:1],2-6[8:1],{2}5w1[8:1],
{4}3/7,{8}1<7v2[4:1],3,{4}2V86[4:1],{16}3,4,{8}5h[8:3],
{16},,,,6,7,8,1,2,3,4,5,1,8,7,6,
{24}5b,4,3,2,1,8,7,6,5,4,3,2,{2}8-5[8:1]/1-4[8:1],
{6}A6h[6:1],A2h[6:1],D8h[6:1],D4h[6:1],D6h[6:1],D2h[6:1],
{2}Cf,{16}8,7/1,6/2,5/3,{4}4,
6h[4:1],B5/A5,{8}6h[4:1],C,{4}B1/A1,
3h[4:1],B4/A4,{8}3h[4:1],C,{4}B8/A8,
7h[4:1],E2/D2,{8}7h[4:1],C,{4}E4/D4,
{2}2h[4:1]/6h[4:1],{8}3,5,4,4h[4:1],
,,6,6h[4:1],,,4/7,3/8,
{16}2/1<5b[4:1],,,3,,,{8}3,{2}2h[2:1],
{16}7,6,1,2,6,5,2,3,7,6,5,4,3,2,1,8,
{4}7/4V27[4:1],7V51[4:1]*-5-2[4:1],,A1/D2/A2,
{8}8-4[8:1],2,8,1-6[8:1],,1,{4}5h[4:1],
{16},,3,4,{8}2,{24}5,6,7,{8}8,4-2[8:1],1,4,
{16}8,7,6,5,8/4,1,2,3,4,5,6,7,{4}4/8-4[8:1],
{16},,,,,,,,2,4,2,4,1,5,1,5,
8,6,8,6,8,7,8,7,{32}1,2,3,4,5,6,7,8,{4}1/5,
{8}4,2,5,3,{16}6,4,6,4,7,5,7,5,
{12}6x,4,A7/B7,3x,5,A2/B2,8,1,7,1w5b[4:1],8,2,
{1}1s5V73-1[4:27],
,,,,,,{4}8h[4:1],
E3,{8}1h[4:1],B7,{4}E7,
{1}5V74[4:7],
,3V14[4:7],
,6V85[4:7],
,2V83[4:7],
7-4b[4:3],
E
