&title=Metaphor
&artist=Ichika Nito feat. Feryquitous
&first=0.223
&des=Aza
&lv_5=14
&inote_5=(170)
{1},
{4}4h[8:1]/5h[8:1],{8}3,3,4,3,2,2,{4}5<8[4:1],8>3[4:1],3,C,4/6pp4[2:1],{8},2,{2}3h[4:1],{4}2pp8[2:1]/5,{8},6,{2}7h[4:1],{4}5h[8:1]/6h[8:1],{8}7,7,6,5,4,3,{4}5<8[4:1],8>3[4:1],3,C,4/6V84[2:1],{8},2,{2}3h[1:1],{4}4,5,6-4[8:1],2-6b[8:1],
2/7h[4:1],{8},5<1[8:1]/6,4x,3/5,3h[4:1],,{16}8,2,8,2,7,1,7,1,6,8,7,2,5,3,{8}4,2-4[8:1]/6xv4[8:1],,2x/6,,5-7[8:1]*-1[8:1],4,5,,{16}2,8,2,8,3,7,3,7,2,6,4,8,3V52[4:1],5,1,,{8}3x,6x,7hx[8:1],{16}3,2/6,{8}1<3[4:1]/5,8b,{4},{8}2,1,8/2,7,1/6,5,2/4,3,{4}4/5V73[4:1],3,2V48[4:1],1,7-4[8:1],2pp6[8:5],5,6-1[8:1],
{4}Cf,{16},,3,4,2h[8:1],,7,7,1,8,8,,2,4,2,4,3,5,3,5,4,6,2,7,1,5,3,,4,2,2,,6-8[8:1]*v4[8:1],4,4,,{4},1h[8:1]/2h[8:1],{16}8,1,8,1,7,2,7,2,6,4,6,3,5,4,{8}6,8>3[8:1]/4,7,6/8,{16}5,5,{8}4V28[4:1],7,4,,6-8[8:1],5,4/6-4[8:1],3,6-2[8:1]/2,1,6,3,{4}4V28[4:1]/8,5,6V82[4:1],5,4z8z4[8:5],1,7-3[8:1],,
{1}2b>8[2:3],,7<1[2:3],,{2}3/6<3[2:5],{4}E6,E5,E4,,E6,E5,E4,,E6,E5,Ch[2:1],,{16}B7,B8,B1,,B2/E3,,B6/E7,,
{32}8V62[4:1],1,2,3,{8}4b,,5,5,4,3/5,6,{16}2,1,2,1,3,8,3,8,2,1,3,8,5,6,4,,{4}3^2-8[8:1]*-5^6[8:1]/7,3,{8}7qq5[8:1]/1>3[8:1],8,1/7,,{16}6,4,6,,3,4,3,,7,5,6,2,8,1,7,8,{4}6v8[8:1],{8},{32}1,2,3,4,{8}5V38[4:1],8b,,,7h[4:1],6,5h[4:1],6,8V26[4:1],5,5,4,
{4}3V15[4:1],5,6V48[4:1],8,1-4[8:1],5pp1[8:5],3,2-5[8:1],Cf,{8},{16}8<5[8:1],4,7,,8,3x,2x,1x,4,,{32}2x,3,4,,{8}6h[8:1],{32}3x,4,5,,{8}7h[8:1],{32}4x,5x,6x,7x,8x,1x,2x,3x,{8}8h[8:1],5,{16}4,6,6,,2v4[8:1],4,{8}4V68[4:1],{2},{16}2,1,3,8,2,2,7x,,5,6,4,7,3,6,2,,{8}4/8-4[8:1]*-6[8:1],1,8,,{16}3-5[16:1],5-1[16:1],1-7[16:1],7,{4},{8}6h[4:1],5,4,3,5h[4:1],4,3,2,{4}1>4[4:1],4V62[4:1],{8}8,,7,7,{4}1<6[4:1],6>3[4:1],{16}3,2,1,8,7,6,5,4,
{1}1b>5[1:1],6V42[1:1],8<4[1:1],{2}3V57[1:1],2,1h[1:1],,8h[1:1],7,7h[1:1],,6h[4:3],4h[2:1],
{4}5-1[8:1],2h[4:1],8>3[8:1],6h[4:1],7-2[8:1],1h[4:1],4-7[8:1],4-1[8:1],4-8[8:1],7h[4:1],1<6[8:1],3h[4:1],2-7[8:1],8h[4:1],5-2[8:1],5-8[8:1],5-1[8:1],2h[4:1],{8}4,3/5,4/6h[4:1],,5h[4:1],,7h[4:1],,4,3/6,2/5,1/4,8-3[8:1],3-6[8:1],6-1[8:1],7,8<1[2:1],,1,1b,{2},Ch[2:1],{1}8-5-7-4[2:1]*-3-1-4[2:1],
{8}1/2,8,{16}7/1,6,5,4,2,3,4,5,8,,6,5,6,,7/4,,2,1,2,3,2,,8/1,,7,8,7,,1/6,,5,,2/7,3,4,5,7,6,5,4,2,,3,4,3,,4/5,,6<1[8:1],5,6,5,6,,4,,2,,4/8,,1/6,,7,,8/2,7,6,5,2,3,4,5,7,,8,1,8,,2/1,,3,4,3,2,3,,4/5,,7,6,7,,3/8,,2,,2/8,3,4,5,8,7,6,5,3,,2,1,{8}2-4[8:1],8-4[8:1],2-6[8:1],8-3[8:1],2-5[8:1],8-6[8:1],2,8,
{24}4,3,2,1/8,7,6,{2}5s1[4:3]*V73-1b[4:3]/2b,,{4},7-3[8:1]/8-4[8:1],7/8,1h[8:1]/5h[8:1],{32}2/6,3,4,5,6,7,8,1,{4}2z6[4:1]/6s2[4:1],,,3/4-8[8:1]*-8[8:1],,{16}2,,1,,7/8,,4/5,,6,5,6,7,6,,1/5,,2,3,2,,3/4,,5,,1/6,2,3,4,1,8,7,6,4,,7,8,7,,1/6,,2,4,3,5,4,6,5,7,7,,2,1,2,,3/8,,7,5,6,4,5,3,4,2,2,7,8,,
{8}5b/1b,{16}2,4,3,5,3,5,4,6,4,6,5,7,3,8,{8}2h[4:1],1,8h[4:1],3,4-8[8:1],7,4,,1/6,7,3/6<1[8:1],7,6/5,{16}3,3,{8}4<7[8:1],2-6[8:1],4,2,8-3[8:1]*-5[8:1],1,8,,7b,,6h[4:1]/4,8,2h[4:1],4,{12}E7,E6,E8,E3,E4,E2,{8}5/7h[4:1],1,3h[4:1],1,{12}A6,A5,A7,A2,A1,A3,{16}4/8,7,6,5,4,3,1,2,3,4,5,6,7h[4:1],,,,2,1,8,1,2,3,4,5,6,5,4,5,6,7,8,1,
{1}2bpp4p8[2:1]/6qq4q8[2:1],{48}A7/1h[2:1],D7,A6,D6,A5,D5,{8}A4,{4}3-7[8:1],3,2/8,{12}3/4x,4/5x,5/6x,4x/7,3x/6,5x/2,1h[4:1],,,8b,8b,8b,{16}1,7,2,6,1,7,2,6,3,5,2,8,3,7,4,6,
{8}5>2[8:1],,5,6h[8:1],,7/8,1/6,2/5,1/2,3/8,4/7,1h[8:1]/8h[8:1],,6-2[8:1],2>8[4:1],6,1h[8:1],,2,3h[8:1]/7h[8:1],,4/8,3/7,2/6,{16}1b/5,2,6,5,2,3,7,6,{32}1/5b,2,3,4,5,6,7,8,1/5,4,3,2,1,8,7,6,
{1}4b-8[2:3]/5h[1:3],,,,{8}6h[2:1],5,4,3,3h[2:1],4,5,6,6h[2:1],3,4,5,5h[4:1],7,8h[4:1],4,3h[4:1],7,{16}7,6,{8}5,{16}3,4,2,5,{4}1-6[8:1],1/4-7[8:1],4/8^1V72-6b[8:3],5-2[8:1]/8,
