&title=Incomplete the one
&artist=Halv
&first=0.75
&des=Slug
&lv_5=13+
&inote_5=(208)
,,,,
{12}
3,5,4,6,5,7,4,6,3,5,2,4,1,3x,3x,2,4x,4x,3,5,5,4,6,6,
{16}
A2,E3,E4,A4,A1,B1,C,B5,A8,E8,E7,A6,A1,A2,A3,A4,A5,A6,A7,A8,Ch[4:1],,,,,,,,,,,,
8-6[8:1],,,,8,,,,5,,4>1[8:1],,,,4,,8v5[8:1],,,,8/7-4<6-1[4:1],,,,7,,,,8b,,,,2>4[8:1],,,,2,,,,5,,5<8[8:1],,,,5,,1v4[8:1],,,,1/2<8q5[4:1],,,,2,,,,7,,,,4-8[8:1]/7-5[8:1],,,,47,,,,1x-5<8-4[16:10]b,,2,,,,1x,,2x-4[8:1],,,,2-6[8:1],,,,,,,,,,,,
{12}
6,4,5,3,4,2,5,3,6,4,7,5,8,6x,6x,7,5x,5x,6,4x,4x,5,3x,3x,Cf,,,
{4}
,,,,,,,4h[16:6],,5q4<1[16:16],,C,,,,3h[16:6],,2q4<8[16:16],,C,,,,
{16}
1h[16:2],,,,,,2xq6-1>4[16:16]/C,,,,,,,,,,,,,,,,,,,,,,,,,,8h[16:2],,,,,,7xp3-8<5[16:16]/C,,,,,,,,,,,,,,,,,,,,,,,,,,4b-8[8:1],,,,34,,,,2,,2,,21,,,,8-4[8:1],,,,78,,,,6,,6,,65,,,,7b/4x,6,5,4,3,,1b/5x,2,3,4,5,,8/B4,7,6,5,4,3,2x/C,1,8,7,6,5,4/B8f/A8/E1/E8,,,,,,,,1h[4:1]/E4/B4,,,,,,7/E6/B5,,,,,,1bh[4:1]/E4/B4/B3,,,,,,7b/E6/B5/B6,,,,,,8<5[16:4],,,,5>1<5[16:8],,5,,1
,,,,5>1[16:4]b,,,,1-7-5-3-1[2:1]b,,,,5,,,,,,
8b,,8b,,1bx/7bx,,2bx/6bx,,3-5[8:1]/5-1[8:1],,,,35,,,,,8x-6-1-5[16:10]/4x,,,,,2,,3,,2,,,,2,,3,,46,,3/5,,,,3-8[8:1]/5-8[8:1],,,,3b/5b,,,,,1x-3-8-4[16:10]/5x,,,,,7,,6,,7,,,,7,,6,,53,,64,,,,3<6v8-6-4[16:24]b/7>2v4-2-8[16:24],,,,,,,,,,,,,,,,,,,,,,,,,,,,,,,,,C,,,,,,,3,4,2,,,,6,5,7,,,,3,4,1,,,,6,5,8,,,,37,,,,3,7,3,7,3,7,3,7,3,7,4,8,4,8,4>5[4:1],8<5[16:3],5x,1x,,,,,,,,,
7-3[8:1],,3-1[8:1],,1<6-4[4:1],,8bh[4:1],,,,,,2h[8:1],,,,2-4[8:1],,4pp1[4:1],,2,,8,,8-3[8:1]b,,,,8-5[8:1]b,,,,8-4[8:1]b,,,,8,,3<6[8:1],,,,1-5[8:1]/3,,2,,1,,,,8-4[8:1],,8,,8x/2-5[8:1],,,,2x/6-3[8:1],,,,2>5[8:1]/6x,,,,21,,8,,7<4[8:1],,4<2[4:1],,7,,2,,3,,4p4>8[16:6],,,,8x,,8x>4[4:1]b,,,,,,7-5[8:1],,,,7-1[8:1],,,,7-5[8:1]*-4[8:1],,,,7-1[8:1]*-2[8:1],,,,7w3[8:1],,,,,,,,,,5/1-3-8-4[2:1],,,,6/1,,6,,,,
5bh,,5bh,,4bx/6bx,,3bx/7bx,,2-8[8:1]/8-4[8:1],,,,28,,,,5x-7-4-8[16:8]/1x,,,,1-3-8[4:1],,,,,,,,,,1,,7,,1p2p5[2:1],2,3,4,51,,,,,,,,3,,2,,,,1/8q4[8:1],,,,7q3[8:1]/8,,,,,,2hx[2:1],,,,B5,B6,B7,B8,B1,,3,,,,2h[4:1]/3,,,,1-5[8:1],,7,,1,,,,
6,,,,7h[4:1]/6,,,,8-4[8:1],,2,,8,,,,2/4x,,3,,5,,35,,4,,4,7,3,6,2,
{32}
4x-1-4-7-2[16:41],B4,C,B8,,,,,,,,,,,,,,,
{4}
8-3-6-1[16:32]b,,,,,,,,,,
{16}
,,C/B1/A1,,,,,,,,,,,,,,,,,C/B2/A2,,,,,,,,,,,,,,,,C/B3/A3,,,,,,,,,,,,,,,,,,C/B4/A4,,,,,,,,,,,,,,,,,,C/B5/A5,,,,,,,,,,,,,,,,,,,Ch[4:1],,,,,,8w4[2:1],,,,,,,,,,,,,
2/6-2-8[2:1],,,,,,,,8-4[4:1],,,8x,,,,,,,,,,2,,,2,1,,,1-5[8:1],,,18,,,,,,,,,,,
7/3-7-1[2:1],,,,,,,,1-5[4:1],,,1x,,,,,,,,,,7,,,7,8,,,8-4[8:1],,,81,,,,,,,,,,,
7/3-7<1[2:1]b,,,,,,,,1-5[4:1],,,1x,,,,,,,,,,7,,,7,8,,,8-4[8:1],,,81,,,,,,,,,,,
2/6z2-8[2:1],,,,,,,,8x-4[4:1],,,8x,,,,,,,,,,2,,,2,1,,,1v3[8:1],,,Ch[16:12],,,,,,,,,,,,1p8[4:1],,,,1/8-3[8:1],,,,7,,6,,5,,4w8[8:1],,,,4,,,,,,
2-4[8:1]/6>4[8:1],,,,26,,,,26,E3,B3,B4,E5,E1,B1,B2,E3,E7,B7,B8,E1,A4,A5,A6,A7,A8,E2,E3,E4,E5,B5/E6,,D5/A4,,E1/A8,,B2/E3,,,1p8[4:1]b,,,,1/8>3[8:1]b,,,,7,,6,,5,,4w8[8:1],,,,4>8qq4[2:1],,,,,,,,,,,,,,,
E7,B6,B5,E5,E1,B8,B7,E7,E3,B2,B1,E1,A5,A4,A3,A2,A1,E8,E7,E6,E5,B4/E4,,D5/A5,,E1/A1,,B8/E8,,,,,8x<3[1:1],,,,,,,,C,,,,,,8,,,,1,,1qq5[2:1],,,,1,,,,,,,,
6-3-1[1:1],,,,,,,,C,,,,,,1,,,,8,,8pp4[2:1],,,,8/7,,,,,,,,
6-8[8:1],,,,5,,,,4-6[8:1],,,,3,,,,3-1[8:1],,,,4,,,,5,,8qq3[16:24]/5q2[16:24],,,,85,,,,,,,,,,,,,,,,,,,,,,,,,,,,,,,,,,1v7[8:1],,1,,,,3-7[8:1],,3,,,,5v7[8:1],,5,,,,,,6x,8x,5x,1x,4x,2x,3xw7[8:1]b,,,,Cf,,,,,,
2h[8:1],,,,2-4[8:1],,4-6v1[4:1],,2,,8,,8>3[8:1]b,,,,8<5[8:1]b,,,,8-4[8:1]b,,,,8,,3<6[8:1],,,,1-5[8:1]/3,,8,,1x,,,,8x-4[8:1],,8x,,8x/2-5[8:1],,,,2x/6-3[8:1],,,,2>5[8:1]/6x,,,,21,,8,,7<4[8:1],,4<2[4:1],,7,,2,,3,,4p4>8[16:6],,,,8x,,8x>4[4:1]b,,,,,,7-5[8:1],,,,7-1[8:1],,,,7-5[8:1]*-4[8:1],,,,7-1[8:1]*-2[8:1],,,,7w3[8:1],,,,,,,,,,5/1-3-8-4[2:1],,,,6/1,,6,,,,
5,,5,,4x/6x,,3x/7x,,2<8[8:1]/8q4[8:1],,,,28,,,,5x-7-4-8[16:8]/1x,,,,1-3-8[4:1],,,,,,,,,,1,,7,,1p2p5[2:1]/5,6x/2x,7x/3x,8x/4x,5bx/1bx,,,,,,,,3,,2,,,,1/8q4[8:1],,,,7q3[8:1]/8,,,,,,2hx[2:1],,,,B5,B6,B7,B8,B1,,3,,,,2h[4:1]/3,,,,1-5[8:1],,7,,1,,,,
6,,,,7h[4:1]/6,,,,8-4[8:1],,2,,8,,,,
3-7[8:1],,,,2h[4:1]/3,,,,1-5[8:1],,7,,1,,,,
6>3[8:1]b,,,,7h[4:1]/6,,,,8-4[8:1],,2,,8,,,,
5,,5,,3,,24,,6,,57,,81,,81,,27,,27,,4,5,3,6,4,5,2,6,1,4,8,5,1,6,1,6,2,7,2,7,4,
{32}
8x,7x,6x,2x,1x,8x,7x,6x,5x,4x,3x,2x,4x-1-4-7-2[16:41],E8/B8/B7,C/B3/B4,E4,D4,,,,,,,,,,,,,,
{4}
8x-3-6-1[16:32]b,,,,,,,,,
{16}
,,,C/B1/A1,,,,,,,,,,,,,,,,,C/B2/A2,,,,,,,,,,,,,,,,C/B3/A3,,,,,,,,,,,,,,,,C/B4/A4,,,,,,,,,,,,,,,,C/B5/A5,,,,,,,,,,,,,,Ch[16:1],,,
