&title=SECRET BOSS
&artist=Camellia
&first=-0.11
&des=Sougetsu030
&lv_5=14+
&des_5=Sougetsu030
&inote_5=
(220){4},,,,,,,5/7h[4:3],
{8},5,,,{4}5,4/2h[4:3],
{8},4,,,{4}4,4/7<4[8:5],
{8},3,,,{4}2,2>5b[8:5],
{8},5,,,{4}6,7pp4[2:1],
{8}4,4,,,,2,{4}2h[4:1],
5h[8:3],{8}3,4,5,6,{4}4qq5[2:1],
{8}8,8h[8:3],,,,8,{4}7V53[4:1],
{8}3,2,{4}1w5b[8:1],,7b/3b,
{8}4,4h[4:1],,6,{4}6/4,1/7,
{8}8,8h[4:1],,2,{4}2/8,7/3,
{8}4,7-4b[8:1],,7,{4}1,2/5,
{8}6,2-5[8:1],,2,{4}8,8/4,
{8}3/7,3/7<4[8:1],,,,2,{4}1-5[8:1],
1,{8}8,7,4/6,3,{4}8/2-5[8:1],
{8}1>7b[8:3],1,,,,,{4}3-8[8:1],
7v4[8:1],1h[2:1],{32}D6,D7,D8,D1,D2,D3,D4,D5,{4}5bx-1b[8:1],
{32},,,,3bx-7b[0.2727##0.1364],,,,,,,,,,,,{4}8bh[8:3],{8}5,5,
6,4,7-5[8:1],{16}8,1,{4}7,2bx-6b[8:1],
{8},8bx-4b[8:1],,5bxV38b[16:5],,,6,6,
7,7,8p4[8:1],1,{4}2,3bx/6bx<1b[8:1],
{8},3bx>8b[8:1],,,{4}C,{8}1xh[8:1],{16}6,2h[8:1],
,5,{8}3h[8:1],4,5,{4}4/6-8[8:1],5bx>2b[8:1],
{8},8bx-4-6b[4:1],,B3/E3,,,3x,7,
3<5[8:1],3,{4}8w4b[8:1],{8},,6,2,
5,5,4,4,7,7,1,2,
5,6,2,3,6/4,7,2b/8b,2,
6,6,2,1,8-3b[8:1],7,{4}6/8-5[8:1],
8/2,{8}3,3bxh[8:1]/B7/E7,{16},8bxh[16:1]/B2/E3,,,{8}3x,4,
2,{16}8
||这是一个标记~
,1,{8}7,5,6,{16}3,4,{8}2,8,
1,{16}7,5,{8}6,3,2,{16}8,1,{24}7b,6,5,4,,,2b,
3,4,5,,,8b,7,6,5,{96},,,,,,,,{32}3b,4,5,6,7,8,1,2,{4}3/7bxv4v1[4:1],
1x-3v4-6b[8:3],,,B2/B8/B6/B4/Cf,
{8}2x,2x,7<4[8:1],7,3,2,1q5b[8:1],5,
1,6,7p3[8:1],3,7,2,1b,4,
2,5,2/6,3,4/8,7,{4}6/4-8[32:3],
7s3b[4:1],1x-5[32:3],{8},,7-2[8:1],3-6[8:1],
7,3,1,5,8,4,7-5[8:1],2,
7,3,4>1[8:1],5,4,6,7x-4[8:1],7,
2,2,3-8b[8:1],3,5,5,6/1,7/2-6[8:1],
,2/8-4b[8:1],,8/3xh[8:1],{16},2xh[8:1],,,{8}1x/6x,{16}3,5,
{4}3V17[4:1],{8}7,6,5<8b[8:1],5,{4}1v6[8:1]*v4[8:1],
{8},,7/3,2,6/1,5,{4}4V68[4:1],
{8}2,3,{4}4V26b[4:1],{8}8,8,{4}7V53[4:1],
{8}3>5[8:3],2,{4}1q5b[8:1],{8},,7x/3x,7x/3xp7[8:1],
,3,{4}4q8b[8:1],4,{8}2,7q3b[8:1],
,7,{4}5p1[8:1],5,{8}7,6,
2,3,{16}6,7,8,1,7,8,1,2,{4}3/7-4-1[4:1],
1x-5-8[16:5]*-5v3[16:5],,,B8/B4/B2f/B6f/Ch[2:5],
,,,,,,,,,7x>2b[4:1],
{2}2xv5b[4:1],
{24}E8,E1,E2,B2,C,E5,{4}D5,8w4[8:1]*z4b[8:1],{32}8b,Cf/B7/B1/B6/B5/B2/B3,,,,,,,{4}7x-1-6-2-5b[4:5],
{8}6,6,5,5,4,4,
3,3,1,1,{4}1h[4:1],{32}E6,B6,B7,E8,E2,B2,B3,E4,
{4}4xqq1b[4:3],{8}5,5,6,6,7,7,
{4}8<5[8:1]*<5[8:1],8>3[8:1],8z4b[16:3],8/4x,
{8}1x>3[8:1],6,{4}1-5b[8:1],{2}1/5xV31[16:3]*p1[16:3],
{8}7x<5b[8:1],2x,{4}7-3[8:1],{2}7/3xV58[16:3]*q8[16:3],
{8}1x-3b[8:1],7x,{4}1-5b[8:1]/7-1[8:1],1/7,7-4[8:1],
4V28V64[8:3]*<4[8:3],,,Cf/B5/B1/B7/B3,
2x-8-3-7-4b[4:5],{8}3,3,4,4,5,5,
6,6,8,8,{4}8h[4:1],{32}E4,B3,B2,E2,E8,B7,B6,E6,
{4}5x<6<7>8>1b[2:1],{8}2,2,3,4,{4}5p1[8:1],
{8}8,7,{4}2x-7[8:1]/6-3[8:1],6/2,{16}1h[8:1]/5h[8:1],,,2h[8:1]/5h[8:1],
,,{8}3x/5x,{16}4h[8:1]/5h[8:1],,,4h[8:1]/6h[8:1],,,{8}4x/7x,{16}4h[8:1]/8h[8:1],,,8h[8:1]/3h[8:1],
,,{8}8x/2x,{16}1h[8:1]/8h[8:1],,,7h[8:1]/2h[8:1],,,{8}6/3,{16}4,5,4,5,
3,6,3,6,1,8,1,8,2,7,2,7,E3,E4,E5,E6,
E7,E8,E1,E2,{24}5,4,3,2,1,8,{4}7/2x-6b[8:1],{32}2b/8z4V27b[4:13]*v7-5V38b[4:13],Cf,{1},,,{4},,,{16},3,
4,{4}5/6h[2:1],
E2/D2,3h[2:1],D7/E7,8h[2:1],
D5/E5,2h[2:1],D6/E6,6<1V35V71b[4:5],
{1}2V46V82[4:5],
{4},,,3xh[1:1],
4,5,6,7<4[8:1],
{8}7,2>5b[8:1],,2,{4}8,5/7h[4:3],
{8}4,4,3,3,{4}2-5[8:1],8-3[8:1],
6<3[4:1],{8}6x,5xh[8:1],{16},5xh[8:1],,,{8}5b-8[8:1],5,
4,3,2-7[8:1],2,7,6,5V71b[4:1],5,
1,2,3V51b[4:1],3,8,8,{16}8x,7,6,5,
4,3,2,1,8/4,5,6,7,8-4[8:1],1,2,3,{64}4bxq2b[2:1]`8bxq6[2:1],,,Cf,{4},,,{16},,,1h[8:1]/5h[8:1],
,,4h[8:1]/8h[8:1],
,,{8}7/3,{16}3,4,{8}2h[8:1],{16}6,5,{8}7h[8:1],2h[8:1],{16}4,3h[8:1],
,5,{8}4h[8:1],{16}6,5,7,5h[16:3],{4}7h[8:1],{16}4h[8:1]/8h[8:1],,,7h[8:1]/3h[8:1],
,,{8}2/6,{16}6,2,7,1,{4}8-4[8:1],4-1[8:1]*-7[8:1],
{8},,2/6,6,{24}2,3,4,5,6,7,{16}8xh[8:1]/4xh[8:1],,,5h[8:1]/1h[8:1],
,,{8}6/2,{16}6,5,{8}7h[8:1],{16}3,4,{8}2h[8:1],7h[8:1],{16}5,6h[8:1],
,4,{8}5h[8:1],{16}3,4,2,4h[16:3],{4}2h[8:1],{16}1h[8:1]/5h[8:1],,,2h[8:1]/6h[8:1],
,,{8}7/3,{16}3,7,2,8,{4}1-3[8:1],3v4[16:3],
4-6[8:1],{32}8z4b[4:1],,,,,
||这是一个标记~
,,,,,,,,,,,{16}1b,,,2h[8:1]/5h[8:1],
,,{8}6/3,{16}7,4,6,3,5,2,{8}5h[8:1],4,{16}4,6h[8:1],
,5,{8}7h[8:1],{16}6>1b[4:1],8,6,8,{4}6,{16}7b,,,7h[8:1]/5h[8:1],
,,{8}6/4,{16}5/3,2,1,8,7-3[8:1],6,5,4,{4}3-8[8:1]*-6[8:1],
{32},,,,,,,,D2,D3,D4,D5,D6,D7,D8,D1,{4}Cf,5/1V35b[4:1],
{16},7x,,,{4}8V25b[4:1],{16},6x,,,{4}7-2-5b[4:1],
{16},5x,,,{4}6h[16:5],{16},1,,,7b/1bh[8:1],,,6b/1h[8:1],
,,{8}1/5b,{16}2b/8bh[8:1],,,3b/8h[8:1],,,{8}4/8,{32}7b,6,5,4,,,2b,3,
4,5,,7bx,{24}B7,Cf,B3,{4}1bxs5b[16:3],{16},,,,6bh[8:1],,,7h[8:1]/5xh[8:1],
,,{8}8/4,{4}4/8V26b[4:1],{8}8,3-8[8:1],,3-5[8:1]/7-5[8:1],
,3/7,,3/7,{4}8/2,{16}7h[8:1]/1h[8:1],,,6h[8:1]/2h[8:1],
,,{8}5/3,{16}3/5b-1[16:1],,,2b-5[16:1],,,{8}8bv3b[8:1],,8x,
{4}1x-4[8:1]*-6[8:1],1,{16},,,,3bh[8:1],,,2h[8:1]/4h[8:1],
,,{8}5/1,{4}5/1-4[8:1],{8}1,8-3b[8:1],,8/5>2[8:1],
,5,{4}7-4-7b[4:1],7/8,{16}1bh[8:1],,,1h[8:1],
,,{8}1h[16:1],{32}2b/8h[8:1],3x,4x,5x,,,{16}8h[8:1],,,{8}8h[16:1],{32}7b/3b,6x/2x,5x/1x,8x/4xw8b[0.9886##0.1364],{4},,,{16},,{4}4b,
{8}6/2,6/2,{16}5h[8:1]/3h[8:1],,,6h[8:1]/4h[8:1],,,{8}5p1[8:1]/7<5b[8:1],,5/7-3[8:1],
,7,{4}2<1-7b[8:1]*v5b[8:1],2,{16}6xh[8:1]/4xh[8:1],,,5h[8:1]/3h[8:1],
,,{8}2/4,{16}4/2b-4[16:1],,,8b-3[16:1],,,{8}5b,{4}5xv8b[8:1]*v2b[8:1],
,1xv4[8:1]/7xv4[8:1],,6/2V47[4:1],
{8}7V13<5[8:3],,,5,{4}6,7V14b[4:1],
{8}4V68>2b[8:3],,,2,{4}3,{8}3,4,
5,6,5/6,7/4,8/3,2/1,{16}2,1,2,1,
{8}3xV57V13[16:5],7x>6b[16:5],{4}3x,,B8/B1/E1f,
{1},,,{4},,{8},{16}7,
6,{4}5V31-7[1:2],
,,,,,,,3-6-1-4-7-2b[1:2],
,,,,,,,5h[4:1],
{8},5h[4:1],,,{4}5<1[4:3],E1,
E2,E3,E4,4h[4:1],
{8},4h[4:1],,,{4}4>8[4:3],E1,
E8,E7,E6,6h[4:1]/4xh[4:1],
{8},6xh[4:1]/4h[4:1],,,{4}6q8[4:3],C,
E4,E3,E2,8xh[4:1]/2h[4:1],
{8},8h[4:1]/2xh[4:1],,,{4}2pp5[2:1],6,
7,8<5[16:3],{16}4,3,2,1,{4}8h/4h,
{8},1h,7h,5h,7h,1h[4:1],{16},,6h,8h,
{8}6h,{16}2h,4h,{8}2h,2>4[8:1],{16},,5h,6h,{4}7h[8:3],
{8},2h,8h,4h,2h,7V53[4:1],,2h,
2h,1h,{4}1bh[4:1],8-4b[8:1],8h/6h,
{8},6h,2h,4h,2h,8h[4:1],{16},,2h,1h,
{8}3h,{16}7h,8h,{8}6h,6h[4:1],{16},,4h,5h,{8}3h,7h,
7h,3-6[8:1],,8-4[8:1],,8h/1pp5[8:3],,,,7h,
{4}7-3[32:5],3h,1h[2:1],
B4,{8}8h[4:1],E3,{4}B4,6h[2:1],
E8,{8}4h[4:1],B7,{4}E1,2h[2:1],
B4,{8}8h[8:3],3xh,4xh,5-2[8:1],,5h,
{4}7-3[8:1],7h/1-5[8:1],{2}5w1b[8:1],
{8},7h,1h,6h,2h,5h[4:1],{16},,3h,4h,
{8}2h,{16}6h,5h,{8}7h,8h[4:1]/4h,{16},,2h,1h,{8}3h,8h/4h,
7h/3h,6h/2-5[8:1],,2<7[8:1]/8-4[8:1],,2h/8h,,5h/1h,
6h/2h,7h/3h,{4}8h[16:3]/4h[16:3],{16}8xh/4xh,7h/3h,6h/2h,5h/1h,{4}4bh/8bh[8:3],
{8},6,1,1h[4:1],7,7h[8:3],{16},,2,3,
{8}4h[8:1],{16}7,6,{8}3/5,3h[4:1],{16},,5,6,{4}7h[8:3],
{8},5,6/4,3/5,4/2,4/2h[8:5],,5,
6,7,{4}8-4[8:1],1<3[8:3],B4/E5/B5,
{8},8,7,6,2,2h[8:3],{16},,7,6,
{8}5h[8:1],{16}2,3,{8}4/6,6h[4:1],{16},,4,5,{8}3h[8:1],7,
1,8-6[8:1]/2-6[8:1],,2/8>6[8:3],,8/2,,,1,
2,{4}3/8w4[8:1],8,{32}6bx-4b[8:1],2bx,,,,,,,,,,,{8}3bx-7b[8:1],
,,{4}8bh[4:1],{8}5-2b[8:1],8-4b[8:1],
5,8,1,{16}1/5,2/6,{4}3/7-1b[8:1],2bx-6b[8:1],
{8},8bx-4b[8:1],,5bx>2b[8:1],,,8-4[8:1],7-5[8:1],
8x>3[8:1],7,{4}8<5[8:1],8/4w8[8:1],{64}4bx,,,Cf,{4},{16},{8}6/2,
6/2,3,4/8-4b[8:7],8/4,{16},,4,3,
{8}2,{16}8-4[8:1],7,{4}6,{8},,5bx/3bx,6bx/2bx,
7bx/1bx,7bxq3[8:1]/1bx-3[8:1],,7b-5[8:1]/1bp5[8:1],,1b/7bpp4b[8:5],,,,,,,{4}2x-6b[8:1],
2,
{8}7p5[2:1],7,,2,{4}2,{8}1q3[2:1],1,
,5,{4}5,{8}7qq8b[2:1],7,,1,
{4}1,{8}3qq4b[2:1],3,,6,{4}6,
8-4[8:1],8/2-6[8:1],2/6,{8}8-4[8:1],8,
{4}4,{8}2-6b[8:1],2,{4}6,{8}7-3b[8:1],7,
{4}3,{8}1-5[8:1],1,{4}5,{8}6-2b[8:1],6,
5-1[8:1],5,4-8b[8:1],4,3-7[8:1],3,7x,6xV48b[4:1],
,1,{4}2h[4:1],{32},1x/3x,8x/4x,5x/7x,{8}6x,{4}Cf/B7/B6/B5/B4/B2/B1,
{8}7x-4[8:1],3x,7,2,8w4[8:1],1,{4}8,
{8}2-5[8:1],6,2,7,1w5[8:1],8,{4}1,
{8}7-5[8:1],5-1-3b[4:1],{4}7,4x<2[8:3]*<1[16:5]*<8[4:1]*<7[16:3]*<3[16:7],4x,
{16},,,,5h[8:1],,,4h[8:1]/6h[8:1],,,{8}7h[16:1]/3h[16:1],8,1,
2/4,2/4,1,8,5/7,5/7,8,1,
2/4,5/3,6,2,7/1,1/7,{16}2,6,2,6,
3,5,3,5,{32}3,4,5,6,7,8,1,2,7/3,6,5,4,3,2,1,8,{4}7bxv4[8:1]/1bxv4[8:1],
{2}7/1-3v4-6b[8:3],{4}8x-4b[8:1],{64}8b,B8,,Cf,,B4,,,,,,,,,,,{8}2-7[8:1],
5-8[8:1],2-5b[8:1],5V38b[4:1],2,7xh[8:1],{24},,,7,6,5,
{8}4h[8:1],{24}1,2,3,{8}4/7,7h[8:1]/4h[8:1],{16},,6,5,{4}6-8[8:1],
{8}6/2-5b[8:1],1,2/7<4b[8:1],7,3,3>8[8:1],,4,
5,6,{4}8x>3[8:1]/7x<4b[8:1],7-3[8:1]/8-4b[8:1],7/8,
{8}6,5,7-4[8:1],2<8-6>4b[4:1],7,2,{16},,1,8,
{8}7h[8:1],{16}2,3,{8}4/6,6/4,{16},,4,5,{8}6bx/3bx,4b/7b,
5b/2b,8b/1b-3[8:1]*>4[8:1],,1-7[8:1]*<6[8:1],,1,{24},,,4,5,6,
7,8,1,2,3,4,{4}5<8[8:1]*>2[8:1],5w1[8:1],{64}5b,,,Cf,,,,,,,,,,,,,{8}7-2[8:1],
4-1[8:1],7-4b[8:1],4V61b[4:1],7,2xh[8:1],{24},,,2,3,4,
{8}5h[8:1],{24}8,7,6,{8}2/5,2h[8:1]/5h[8:1],{16},,5,4,{4}6-1b[8:1],
6/4,{24}3x<5[8:1],2,1,7x>1[8:1],6,5,{8}3x,7x<4b[16:3],,3,
2,1,{4}8<6b[8:1]/1p5[8:1],8q4[8:1]/1>3b[8:1],8/1,
{8}6,5,4/7,7,3,4,5/2,2,
7,8,1/6,6,5/7,4,5b/3b,6b/2b,
1b/7b,8b-4[8:1],,8b/2b-6b[8:1],,2b/8b,,8-6[8:1],
8-2b[8:1],8-5b[8:1],8-3[8:1],8,{32}8w4b[8:1],,,,,,,,,B7/B6/B1/B2/B5/B3/Cf,,,,,,,,,,,{8}6/2,
7<4b[8:1],1-3[8:1],7,1,{16},,6,5,
{8}7,{16}1,8,{8}2,7/3,{16},,5,4,{4}4pp8b[32:55],
{8},3,2,2,1,1h[8:1],,2,
1,2,{4}2<8[8:1],2-5[8:1]*-6[8:1],2b,
{8},4/7,3>1b[8:1],8-4[8:1],3,8,{16},,2,4x,
{8}3,{16}7,5,{8}6,3qq5b[8:9],,5,6,6,
7,7-1[8:1],,7-5[8:1],,7,,4,
7,3,{16}8,7,6,5,1/4x,2x,3x,4,{4}5/8xw4[8:1],
8b,{8}6/2-5[8:1],1,7-4[8:1],8,3,{16}3,2,
{8}1h[8:1],{24}5x,6x/2x,3x/7x,{8}4x/8x,8/4,{16},,6,5,{4}7-3[8:1],
7/1,{8}2/4,3/5,4/6,4/6,6>4b[8:1],4>2[8:1],
2<8b[8:1],8<6[8:1],{4}5x-1b[8:1],{64}5b,,,Cf,,,,,,,,,,,,,{4}7b/3b,
{8}2,2-5[8:1],,7,{4}7-3b[8:1],{8}1,1-5[8:1],
,6,{4}6-8[8:1]*-2[8:1],6,{8}1/7,2/6,
5/3,5/3,{24}4,5,6,7,8,1,6,5,4,3,2,1,{8}8/2x,3/8,
{4}8/4h[2:1],{24}E8,E1,E2,B2,C,E5,{4}D5,3<7[4:1],
{8}7>3[4:1],,,5,{4}5-1b[8:1],6<2[4:1],
{8}2>6[4:1],,,8,{4}8-4b[8:1],2<6[4:1],
{8}6>2[4:1],,,8,{4}8-5b[8:1],4-1[8:1],
7s3b[4:1],8x-4[32:3],,6V42[4:1],
{8}2V86[4:1],,,4,{4}4p8b[8:1],2V86[4:1],
{8}6V42[4:1],,,8,{4}8p4b[8:1],7V53[4:1],
{8}3V17[4:1],,,5,{4}5p1b[8:1],8z4[2:1]*-4[2:1],
{16},,,,,,,,,,,,5h[8:1]/3h[8:1],,,6h[8:1]/2h[8:1],
,,{8}7h[16:1]/1h[16:1],{24}1,8,7,6,5,4,{4}3,{16}6h[8:1]/4h[8:1],,,7h[8:1]/3h[8:1],
,,{8}8h[16:1]/2h[16:1],{24}7,6,5,8,7,6,1,8,7,2,3,4,{16}5h[8:1]/7h[8:1],,,8h[8:1]/1h[8:1],
,,{8}4h[16:1]/2h[16:1],{24}4,3,2,1,8,7,{4}6,{16}8h[8:1]/6h[8:1],,,4h[8:1]/5h[8:1],
,,{8}1h[16:1]/3h[16:1],{24}3,4,5,8,7,6,2,3,4,7,6,5,{8}1bx-4[8:1],1,
5,6,7-2[8:1],7,2,3,4V28b[4:1],4,
8,7,6V48b[4:1],6,1,1,{16}1x,2,3,4,
5,6,7,8,1/5,4,3,2,1-5[8:1],8,7,6,{64}5bxp7b[2:1]`1bxp3[2:1],,,Cf,{4},,,{16},,,8h[8:1]/4h[8:1],
,,5h[8:1]/1h[8:1],
,,{8}2/6,{16}6,4,{8}8h[8:1],{16}3,5,{8}1h[8:1],7h[8:1],{16}5,6h[8:1],
,4,{8}5h[8:1],{16}3,4,2,4bh[16:3],{4}2bh[8:1],{16}5h[8:1]/1h[8:1],,,2h[8:1]/6h[8:1],
,,{8}7/3,{16}3,7,2,8,{8}1-5[8:1],1,{4}5-8b[8:1]*-2b[8:1],
{8},,7/3,3/7,{24}7,6,5,4,3,2,{16}1xh[8:1]/5xh[8:1],,,4h[8:1]/8h[8:1],
,,{8}3/7,{16}3,5,{8}1h[8:1],{16}6,4,{8}8h[8:1],2h[8:1],{16}4,3h[8:1],
,5,{8}4h[8:1],{16}6,5,7,5bh[16:3],{4}7bh[8:1],{16}8h[8:1]/4h[8:1],,,7h[8:1]/3h[8:1],
,,{8}2/6,{16}6,2,7,1,{4}8-6b[8:1],6v5b[16:3],
5-3b[8:1],1s5b[4:1],{16},,,,8b,,,7h[8:1]/4h[8:1],
,,{8}3/6,{16}2,5,3,4,2,5,{8}3h[8:1],5,{16}5,3h[8:1],
,4,{8}2h[8:1],{16}3>5b[4:1],1,3,1,{4}3,{16}2b,,,2h[8:1]/4h[8:1],
,,{8}3/5,{16}4/6,7,8,1,2-6[8:1],3,4,5,{4}6-1b[8:1]*-3b[8:1],
{32},,,,,,,,D8,D7,D6,D5,D4,D3,D2,D1,{4}Cf,4b/8bV64b[4:1],
{16},2x,,,{4}1bV74b[4:1],{16},3x,,,{4}2b-7-4b[4:1],
{16},4x,,,{4}3bh[16:5],{16},8,,,2b/8bh[8:1],,,3b/8h[8:1],
,,{8}8/4b,{16}7b/1bh[8:1],,,6b/1h[8:1],,,{8}5/1,{32}2b,3,4,5,,,7b,6,
5,4,,2bx,{24}B2,Cf,B6,{4}8bxz4b[16:3]*-4b[16:3],
E
