&title=Callima Karma
&artist=t+pazolite vs Feryquitous
&first=0.07999999
&lv_5=14.7
&des_5=Pagasus
&inote_5=
(190){4}5b<5b[2:7],{1},{24}E2,
B1,B8,B7,B6,E6,{4},{24}E6,B5,B4,B3,B2,E2,
{1},,5V71V35[2:3]*<5[2:3],
,5<2[2:3]*>8[2:3],
,1>1[1:2],
,1V35V71[1:2],
,1q5q1[2:3],
,{4}1b-5[2:3],
{8}E4,B3,,E7,{4}B7,
{8}B3,A3,A6,B6,{2},3h[#0.9473705],
{4},4<7[4:1],
7>2[4:1],2>5-1[2:1],,1s5b[4:1]*w5[8:5],
,,,8>8[4:11],
{8},B7,{4}B6,{8}E7,B6,B5,E5,
{1}Ch[4:7],
{4},,,{8},{24}3h,4h,5h,
{2}6h,Ch[4:3],
{8}B4,B5,E6,A6,6x,5x,4x,3x,
{4}2h[4:3],{2},{4}7v4[4:1],
4v1[4:1],1v6>4[2:1],,4>4[1:1],
,,,Cfh[4:1],
{2},{8}5<8[8:3],{4},{8}8>5[2:1],
{4}8,{2},{4}6-2[4:5],
{16}7h,{4},{16}4h,{4},{8},{4}5h,
{24}6w2b[3:5],5,4,3,{1},{4},,,{12},{1}1h[1:1]/5V71[12:11],
{24},2,3,4,{12}5,2h,{24},{8}4h,3h,5h,4h,6h,
{1}8h[1:1]/4V28[1.2632##0.1579],
{24},7,6,5,{12}4,{24}2,3,4,5,{12},{16}3,4,{8}3,{16}6,5,{8}6,
{1}4h[1:1]/8V64[1.2632##0.1579],
{24},3,2,1,{12}8,6,{24},{8}8,7,2,1,{16}3,,
{1}5h[1:1]/1V35[1.2632##0.1579],
{24},6,7,8,{12}1,2b,{6},{16}4h/5h,5h/4h,{8}4h/5h,{24}5,4,5,4,5,4,
5,4,5,4,5,4,5,4,5,4,5,4,5,4,5,4,5,4,{4}5b-8[8:1]*-2[8:1],
5b,{8}7h,1h,6h,8h,5h,7h,
{1}3h[1:1]/7<3[1.2632##0.1579],
{24},2,1,8,{12}7,{24}1h,2h,3h,4h,{12},{16}6,5,{8}6,{16}3,4,{8}3,
{1}6h[1:1]/2<6[1.2632##0.1579],
{24},5,4,3,{12}2,5x,{24},{8}4x,6x,3x,7x,4x,
{1}5-8-6[8:5]/4-1-3[8:5],
4-8[2:1]/5-1[2:1],
{8}5>3[4:1],6,7,8,1-6[8:1],2-5[8:1],1,2,
7>1[4:1],6,5,4,3-6[8:1],2-7[8:1],3,2,
1>3[4:1],8,7,6,5-8[8:1],4-1[8:1],5,4,
7>1[4:1],6,5,4,3-6[8:1],2-7[8:1],3,2,
5,4,3pp3[4:1],6,7/3>1[8:1],8h,7h,6h,
5,6,7pp7[4:1],4,3/7<5[8:1],2h,3h,4h,
3,4,5pp5[4:1],3,2/5-8[8:1],1h,2h,3h,
5,4,3q3[4:1],6,7/3-1[8:1],8h,7h,6h,
4,5,6qq6[4:1],4,3/6-8[8:1],1h,2h,3h,
5,4,3pp3[4:1],6,7/3v1[8:1],8h,7h,6h,
5,6,4,7,2-5[8:1],1-6[8:1],2,1,
3,4,2,5,8-3[8:1],7-4[8:1],8,7,
2,1,3,8,5-2[8:1],6-1[8:1],5,6,
3,4,2,5,8-3[8:1],7-4[8:1],8,7,
2-5[8:1],1/8,2,7-3[8:1],8-4[8:1],7,{4}8,
{8}6h,3h,7h,2h,8h,1h,{16}7h,6h,5h,4h,
{1}3V17V53>2-8-6-4-2b[2:27],
{4},{24}E3,B2,B1,B8,B7,E7,{4},{24}E7,B7,B8,B1,B2,E3,
{1},,,,,,,,,,,,5b<1[1:1]*V71[1:1],
1bV35b[2:1],
{24}1/5,2/6,3/7,4/8,5,6,7-3b[12:1],8,1,2,3,4,{4}5/7bx,{16}1,1,4,4,
3,3,5,5,2,2,4,4,3,3,6,6,{24}8,7,8,7,8,7,
{4}8>4v1[2:1],{16}8/4,5,6,7,{2}8,
{4}7/4bV28[4:1],{16}8b,7h,6h,5h,{2}4bh[4:1],
{8}2-6[8:1],2,1-5[8:1],1,8-4[8:1],8,7-3[8:1],7,
6-2[8:1],6,{4}5<8[8:1]*>2[8:1],5w1[8:1],5b,
{8}7-3[8:1],7,8-4[8:1],8,1-5[8:1],1,2-6[8:1],2,
7b,{4},{16}8,8,2,2,7,7,{24}5,6,5,6,5,6,
{4}5>1[4:1],{24}5/1,8,7,6,{12}5h[12:1],{4},{8}4,{16}5,5,
4,4,,5,5-1[8:1],3,3,5,{4}5,{24}3,8,3,8,3,8,
{2}3b>8[12:1]*<6[8:1],{4}7b-2[8:1]*V51[8:3],7b,
,4bV61[4:1],1bpp3[4:1],3bV17[4:1],
{24}7bpp2[4:3],6,5,4,{6}3,{4},{12},,{4}2bx<7[4:1],
,{8},{24}6h,5h,4h,{4}3-8[8:1]*-6[8:1],3b,
{1}7bx-3[8:5],
{4}5bqq4[4:1],4bqq5b[2:1],,5bxV71[4:1],
{16}1,2,3,4,{24}5,6,7,8,1,2,3,4,5,6,7,8,1-5[8:3]*-5[8:3],2,3,4,5,6,
{2}7,{4}2bh[8:1]/6bh[8:1],{24}2,6,2,6,2,6,
{8}2>4[8:1],2,1-5[8:1],1,8-4[8:1],8,7<5[8:1],7,
{4},{16}1bV75[4:1],2h,3h,4h,{2}1b/5h,
{16}1,7,1,7,{24}2-6[8:1],6,2,6,2,6,{4}2b,5b,
{24}4,5,4,6,3,6,{4}3b>8[8:1],3b<6[8:1],3b,
{8}2-5[8:1],2,1-4[8:1],1,8-5[8:1],8,7-4[8:1],7,
{16}3bh[16:5],{4},{8},{16}4,4,2,2,5,5<1[4:1],3,3,5,
{24}5/1b,2,3,4,{6}5-8[0.4211##0.1053]*-2[0.4211##0.1053],,{4}5,{16}1,1,7,7,
2,2,6,6,4-8[8:1],5,4,5,{4}4,{24}7,1,7,1,7,1,
{4}7-4[8:1]*V15[2:1],7,5xV31[4:1],{16}1bh,8h,7h,6h,
5h,6,7,8,{8}1,{24}2,8,2,8,3,7,3,7,4,{4}6<1[8:1],
{8}6,{16}2,3,{24}4,5,6,7,8,1,{4}2h[16:3],6h[16:3],
{16}3,3,5,5,4,4,6,6,{4}4w8[8:1],4,
{16}3,5,4,7h,5h,6h,4,5,4,6h,5h,7h,4,5,3,7h,
6h,8h,3,4,{24}2,3,4,5,6,7,8,1,2,3,4,5,{32}6,7bx,8bx,1bx,{48}2bx/A5,{96}D6,3bx,{48}A6,4bx/D7,{96}A7,5bx,{48}D8,
6bx/A8,D1,A1,D2,A2,D3,A3,D4,A4,D5,{1},{4},,,{24},{1}4b<5-8>1-4[4:31]*V68V24b[4:31],
,Ch[1:2],
,,{2}Ch[2:1],
,
{1}Ch[16:1],
{16},,,Ch[16:1],{1},{4},,,{16},,,Ch[16:1],
{2},{24}B7,E7,{6}A6,
