&title=蜘蛛糸モノポリー
&artist=sasakure.UK
&first=0
&des=サカとその蜘蛛の糸。
&lv_5=14
&inote_5=(100)
{1},
{2}1-4[8:3],8-5[8:3],
{2}1>4[8:3],8<5[8:3],
{2}1-5[8:3],8-4[8:3],
{2}1q4[8:5],8-5[8:1],
{16}2h[8:1],,4,3,7h[8:1],,5,6,1,8h[16:3],2h[8:3],,,,,,
{16}7h[8:1],,5,6,2h[8:1],,4,3,8,1h[16:3],7h[8:3],,,,,,
{16}2h[8:1],,4,3,7h[8:1],,5,6,1,8h[16:3],2h[8:3],,,,,,
{16}7h[8:1],,5,6,2h[8:1],,4,3,8h[8:1],,6,7,1h[8:1],,3,2,
{16}8,3,7,4,6h[4:1],,5,,5-1[8:1],7,3,5h[16:5],,,,,
{16}2,6,3,5,4h[4:1],,5,,5>2[8:1],3,7h[8:3],,,,,,
{16}1,6,2,5,3h[4:1],,4,,4-8[8:1],2,6,4h[16:5],,,,,
{16}7,3,6,4,5h[4:1],,4,,4<7[8:1],6,2h[8:3],,,,,,
{16}1,3,8,4,7h[4:1],,8,,8-3[8:1],6,2,8h[16:5],,,,,
{16}4,7,3,6,2h[4:1],,5,,5p1[8:1],3,7h[8:3],,,,,,
{16}8,6,1,5,2h[4:1],,1,,1-6[8:1],3,7,1h[16:5],,,,,
{16}5,2,6,3,7h[4:1],,4,,4p8[8:1],6,2h[8:3],,,,,,
{16}7h[8:1],,5,6,2h[8:1],,4,3,8-4[8:1],1,7h[8:3],,,,,,
{16}2h[8:1],,4,3,7h[8:1],,5,6,1s5[4:1],8,3h[8:2],,,,,,
{16}2h[8:1],,4,3,7h[8:1],,5,6,1-5[8:1],8,2h[8:3],,,,,,
{16}7h[8:1],,5,6,2h[8:1],,4,3,8h[8:1],,6,7,1h[8:1],,3,2,
{16}1,2,8,3,7h[4:1],,4,,4>1[8:1],6,2,4h[16:5],,,,,
{16}8,5,1,6,2h[4:1],,7,,7-4[8:1],1,5h[8:3],,,,,,
{16}8,7,1,6,2h[4:1],,5,,5<8[8:1],3,7,5h[16:5],,,,,
{16}1,4,8,3,7h[4:1],,2,,2-5[8:1],8,4h[8:3],,,,,,
{16}6,3,5,2,4h[4:1],,7,,7p3[8:1],5,1,7h[16:5],,,,,
{16}2,6,1,5,8h[4:1],,3,,3-7[8:1],1,5h[8:3],,,,,,
{16}3,6,4,7,5h[4:1],,2,,2q6[8:1],4,8,2h[16:5],,,,,
{16}7,3,8,4,1h[4:1],,6,,6-2[8:1],8,4h[8:1],,6<5[8:22],,,,
{8}1h[8:6],,,,,,,5,
{4}6h[8:1],7h[8:1],8h[8:1],1h[8:1],
{4}8h[8:1],2h[8:1],3h[8:1],3>4[8:22],
{8},,,5,7,6,7,8,
{4}7h[8:1],6h[8:1],5h[8:1],{8}3,2,
{4}1h[8:1],2h[8:1],3h[16:7],{16},,,1,
{16}3,8,2,7,1,6,8,5h[8:1],,8,1,2,3,4/6h[8:1],,8,
{16}6,1,7,2,8,3,1,4h[8:1],,1,8,7,6,5/3h[8:1],,7,
{16}6h[8:1],,2,3h[8:1],,8,7,6h[8:1],,1,2,3h[8:1],,7,6h[4:1],,
{16}7h[8:1],,,78,18,12,,23,,45,,67,,1/8h[8:1],,6,
{16}8,5,7,4>1[16:1],6,3,5h[8:1],4,,5,6,7,18,1h[8:1]/8,,3,
{16}1,4,2,5<8[16:1],3,6,4h[8:1],5,,4,3,2,81,8h[8:1]/1,,1,
{16}7,7,5,5-1[16:1],6,3,8,5V38[16:3],,7-4[16:1],7,5,,7,,26,
{16}2/6h[16:3],,8,8-4[16:1],,1-5[16:1],,8,,1,,{64}8,7,6,5,{16},{64}1,2,3,4,{16},8h[16:1],
{16}5h[16:1],6h[16:1],1h[16:1],4h[16:1],2h[16:1],7h[16:1],{48}2,3,4,{16}5h[8:3]/6b,,3,2,1,8,7h[8:1],,1h[16:1],
{16}4h[16:1],3h[16:1],8h[16:1],5h[16:1],7h[16:1],2h[16:1],{48}7,6,5,{16}4h[8:3]/3b,,6,7,8,1,2h[8:1],,{64}1,8,7,6,
{16}5h[8:1]/3b,,{64}8,1,2,3,{16}4h[8:1]/6b-2[16:1],,5,4,3b-7[16:1]/6,,1,8>7[64:7],3/7b,,6h[4:1],8b,,
{64}8,1,2,3,{16}4h[16:3],,5,6,6,7,7,18,1h[8:1]/2-6[16:1],,{64}2,3,4,5,6,7,8,1,{16}2b,,8,
{16}1/2h[8:1],,{64}1b,8,7,6,{16}5h[16:1],3h[8:1],,{64}2b,1,8,7,{16}6h[16:1],4h[8:1],,{64}3bv6[16:1],2,1,8,37,26,15,84,{16}73,,3b,,
{16}8/7h[8:1],,{64}8b,1,2,3,{16}4h[16:1],6h[8:1],,{64}7b,8,1,2,{16}3h[16:1],5h[8:1],,{64}6bv3[16:1],7,8,1,62,73,84,15,{16}26,,6b,,
{16}8h[16:1],2h[16:1],7h[16:1],1h[16:1],6h[16:1],8h[16:1],5h[16:1],{64}7b,8,1,2,{16}3h[16:1],1h[16:1],4h[16:1],{64}2b,1,8,7,6,5,4,3,{16}2b/1h[8:1],,8,
{16}7h[16:1],2h[16:1],8h[16:1],3h[8:1],,{64}1b,8,7,6,{16}5h[16:1],{64}8b,7,6,5,{16}4h[16:1],{64}7b,6,5,4,{16}3h[16:1],{64}6b,5,4,3,{16}2h[16:1],{64}5b,4,3,2,{16}1h[16:1],{64}4h[128:1],3h[128:1],2h[128:1],1h[128:1],
{64}8b-4[4:47],7h[128:1],6h[128:1],5h[128:1],4h[128:1],3h[128:1],2h[128:1],1h[128:1],8h[128:1],7h[128:1],6h[128:1],5h[128:1],4h[128:1],3h[128:1],2h[128:1],1h[128:1],8h[128:1],7h[128:1],6h[128:1],5h[128:1],4h[128:1],3h[128:1],2h[128:1],1h[128:1],8h[128:1],7h[128:1],6h[128:1],5h[128:1],4h[128:1],3h[128:1],2h[128:1],1h[128:1],8b,7,6,5,4,3,2,1,8,7,6,5,4,3,2,1,8,7,6,5,4,3,2,1,8,7,6,5,4,3,2,1,
{32}8b,7h[64:1],6h[64:1],5h[64:1],4h[64:1],3h[64:1],2h[64:1],1h[64:1],8h[64:1],7h[64:1],6h[64:1],5h[64:1],4h[64:1],3h[64:1],2h[64:1],1h[64:1],8b,7,6,5,4,3,2,1,8,7,6,5,4,3,2,1,
{16}8b,7h[32:1],6h[32:1],5h[32:1],4h[32:1],3h[32:1],2h[32:1],1h[32:1],8b,7,6,5,4,3,2,1,
{8}8b,7h[16:1],6h[16:1],5h[16:1],4h[16:1],3h[16:1],2h[16:1],1h[16:1],
{16}7h[16:1],,5,6,1h[16:1],,3,2,8,1,7h[8:1],,,,,,
{16}1h[16:1],,3,2,7h[16:1],,5,6,8,7,1h[8:1],,,,,,
{16}7h[16:1],,5,6,1h[16:1],,3,2,8,1,7h[8:1],,,,,,
{16}1h[16:1],,3,2,7h[16:1],,5,6,8,7,1h[8:1],,,,,,
{2}1-3[8:1],8-6[8:1],1v6[8:1],8v3[8:1],1-6[8:1],8-3[8:1],1>3[8:1],8<6[8:1],
