&title=Inverted World
&artist=ARForest
&first=-0.148
&lv_2=1
&des_2=
&inote_2=
(125){4},
E
&lv_3=1
&des_3=
&inote_3=
(125){4},
E
&lv_4=1
&des_4=
&inote_4=
(125){4},
E
&lv_5=13+
&des_5=ʁoxλƧnĸᴉ
&inote_5=
(180){4},,,,{1}6h[4:7],
{4},,,B7,
{1}8h[4:7],
{4},,,B1,
{1}2h[4:7],
{4},,,B3,
{1}4h[4:7],
{4},,,5,
5<6<7>8>1>2>3<4[2:7],{8}E2,B2,,E4,{4}B4,
{8}E6,B6,,E8,{4}B8,1,
1>4b[2:3],{8}B5,B4,,B3,{4}B2,
{8}B1,B8,,B7,{4}B6,8,
8<1[2:5],{8}E2,B2,,E4,{4}B4,
{8}E6,B6,,E8,{4}B8,8h[4:1],
{8},,B7,B6,,B5,{4}Ch[8:3],
{16},,E1,E2,E3,E4,E5,E6,8,1,2,3,4,5,6,7,
{2}4/8-4[8:1],{8}1v2[8:1],6,1,7h[4:1],
,1,2,3,6-1-7[16:3],4,6,5h[4:1],
,6,7,8,2-6-3[4:1],1,2,5h[4:1],
,3,2,1,7-5[8:1],8-4[8:1],7>5[4:1],8,
{2}7b,{8}8v7[8:1],3,8,2h[4:1],
,8,7,6,3-8-2[16:3],5,3,4h[4:1],
,3,2,1,{16}7,8,7,8,6,1,6,1,
{8}5/2,3,4/7,6,1-5[8:1],5-1[8:1],{4}1w5b[8:1],
{8},,,,2-4[8:1],4-8[8:1],2,7x,
7xh[8:1],8x,6/1,2,3/7v4[8:1],4-6[8:1],7,3x,
3xh[8:1],6x,1/7,8,1/2v8[8:1],8>1-3[8:1],2,7x,
7xh[8:1],4x,6/3,2,1/7-3[8:1],8-2[8:1],7<1[4:1],8,
{2}7b,{8}7-5[8:1],5-1[8:1],7,2x,
2xh[8:1],1x,3/8,7,6/2v5[8:1],5,2,6x,
7x/4x,2,1,2x/5x,7,8,1x/3x,2,
8x/6x,7,2x/4x,3,7x/5x-1[8:1],6,,,{2}8b-4[8:1]/7b-3[8:1],
{8}2/5,{16}3,4,{8}3,5/2,
{16}3,4,{8}3,5/2,{16}3,4,{4}3-8[8:1],3/5,
{2}1b-5[8:1]/2b-6[8:1],{8}7/4,{16}6,5,{8}6,7/4,
{16}6,5,{8}6,7/4,{16}6,5,{8}6-1[8:1],2-6[8:1],6,2,
{2}8bv7[8:1],{8}3/8,{16}2,1,{8}2,8/3,
{16}2,1,{8}2,8/3,{16}2,1,{4}2v5[8:1],8/2,
{2}4bq8[8:1]*v7[8:1],{8}1/6,{16}7,8,{8}7,6/1,
{16}7,8,{8}7,6/1,{16}7,8,{8}7p6[4:1],1,{4}7,
{2}1b>4[8:1],{16}6,5,7,4,{8}8h[8:1],{16}1,5,
2,4,{8}3h[8:1],{16}7,8,6,1,{4}5p1[8:1]*v2[8:1],5,
{2}8bV64[8:1],{16}1,5,2,4,{8}3h[8:1],{16}6,5,
7,4,{8}8h[8:1],{16}2,1,3,8,{8}4-8[8:1],7v5[8:1],4,7,
{2}2b>4[8:1],{16}6,5,7,8,{8}4h[8:1],{16}2,1,
3,4,{8}8h[8:1],{16}7,1,6,2,{4}5>2[8:1]*<8[8:1],5,
{2}1bp5[8:1]*q5[8:1],{16}3,4,2,1,{8}5h[8:1],{16}8,1,
7,2,{8}6h[8:1],{16}5,7,4,8,3,2,1,8,7,6,5,4,
{1}3x>7V13[8:27]/7x<3V57[8:27],
,,,{16}6h[4:3]/E2,
,,E3,,,{8}E4,{16},E5,,,{4}B2/E2,
{16}3h[4:3]/E8,,,E7,,,{8}E6,{16},E5,,,{4}B7/E8,
{16}6h[16:3],,,7h[16:3],,,{8}8,{16}1h[16:3],,,2h[16:3],,,{8}3,
{16}4h[16:3],,,5h[16:3],,,{8}6,{2}8w4[8:1],
{16}6h[16:3],,,8,{8}7,8/1,2,2,{4}3/1,
{16}3h[16:3],,,1,{8}2,1/8,7,7,{4}6/8,
{16}7h[16:3],,,5,{8}6,5/4,3,3,{4}2/4,
{16}2h[16:3],,,4,{8}3,4/5,6,6,{4}7/5,
{8}4/E8,4,3/E7,3,2/E6,2,1/E5,1,
5/E2,5,6/E3,6,7/E4,7,8/E5,8,
{16}2,1,2,1,3,1,3,1,4,1,4,1,5,1,5,1,
{24}5,6,7,8,1,2,3/6,5,4,3,2,1,{4}4-1[8:1]/8-5[8:1],Cf/E7/E3,
{16}6/2-5[8:1],,,8,{8}2,7h[4:1],{16}8x,1,2,3,1x,2,3,4,
1/5<8[8:1],,,3,{8}5,4h[4:1],{16}2x,1,8,7,1x,8,7,6,
1/5-2[8:1],,,7,{8}5,6h[4:1],{16}4x,3,2,1,3x,2,1,8,
3/7<4[8:1],,,1,{8}7,2h[4:1],{16}1x,8,7,6,8x,7,6,5,
8/4-1[8:1],,,6,{8}4,5h[4:1],{16}7x,8,1,2,8x,1,2,3,
8/4<7[8:1],,,2,{8}4,3h[4:1],{16}8x,7,6,5,7x,6,5,4,
{8}3/8,{16}2,1,,1,{8}2,7/4,{16}6,5,,5,{8}6,
{16}3,1,2,8,1,7,8,6,5,7,4,6,3,5,2,4,
1/3-7[8:1],,,1,{8}3,2h[4:1],{24}1bx,8,7,6,5,4,8bx,7,6,5,4,3,
{16}8/2q6[8:1],,,8,{8}2,7h[4:1],{24}6bx,5,4,3,2,1,5bx,4,3,2,1,8,
{16}5/7-3[8:1],,,5,{8}7,4h[4:1],{24}3bx,2,1,8,7,6,2bx,1,8,7,6,5,
{16}8/4-1[8:1],,,8,{8}4,7h[4:1],{24}8bx,1,2,3,4,5,1bx,2,3,4,5,6,
{16}1/7p3[8:1],,,1,{8}7,1h[4:1],{24}2bx,3,4,5,6,7,3bx,4,5,6,7,8,
{16}5/1>4[8:1],,,5,{8}1,6h[4:1],{24}5bx,4,3,2,1,8,4bx,3,2,1,8,7,
{8}6b/1b,3,4,3b/8b,6,5,7b/3b,6b/2b,
{16}1b/5b,8,7,6,5/1b,4,3,2,6b,7,8,1,2/6b,3,4,5,
{1}2bpp5[2:3]/6bpp1[2:3],
,4/8-4-8[2:3],
,2V48[2:3]/7V51[2:3],
,C/4qq4b[2:3]*pp4b[2:3],
{2},,7-5[8:1],
{8}3,4,3,2h[4:1]/4q8[8:1],
,,,1>3[8:1],8,1,7,7h[4:1],
,,,4,6,4<8[16:3],6,6h[4:1],
,,8,8h[8:1],1,1h[8:1],2,2h[8:1],
{2}3-1[8:1],{8}7,8,7,6h[4:1]/8q4[8:1],
,,,5<7[8:1],4,5,3,3h[4:1],
,8h[4:1],{16},,,,A3,E4,E5,A5,A2,B2,C,B6,
E1,E8,E7,E6,E5,E4,E3,E2,E7/B6,E1/B8,E5/B4,E3/B2,E8,E4,E6,E2,
E
&lv_6=1
&des_6=
&inote_6=
(125){4},
E
