&title=Fly 2 Light
&artist=Halv
&first=0.02
&des=Yo-1C
&lv_6=13
&inote_6=(175){1},
{1},
{8}Ch[8:3],,,,,1x/8x,2/7,,
{4}4/6<3[1:1],4,4,4,
{4}4,4,4,4,
{4}3>6[1:1]/5,5,5,5,
{4}5,5,5,5,
{4}4/6V83[1:1],4,4,4,
{4}4,4,4,4,
{4}3V16[1:1]/5,5,5,5,
{4}5,5,5,5,
{16}6b/5b,,,,4/5,,,,3/4h[16:3],,,3,4,,2,,
{16}3h[4:1]/4,,,,4,,3,,5/2,,3,4,3,,6,5,
{16}6h[4:1],,,,4,,,,4/5,,3,4,3,,2,,
{16}4/2,,,,7/5,,6,5,6,,7,,3,4,3,4,
{16}3,,2,,6,5,6,5,6,,7,,3,4,3,4,
{16}3,,1,,6,5,6,5,6,,8,,3,4,3,4,
{16}2,1,2,1,3,8,3,8,
{32}4x,5x,6x,7x,8x,1x,2x,3x,4x,5x,6x,7x,8x,1x,2x,3x,
{4}4x<3[2:1]/Cf,,,,
{8}E7/E2,,,B4,B6,E3,B8,E4,
{8}B7/E7,,,B2,E6,B1,E7,B3,
{8}E1/B8,,,E4,B6,E3,E5,B1,
{8}B7/E7,B3,B8,E5,B6/E6,B3/E4,C,,
{8}1x/8x,,,2,2,4,3,4,
{8}2h[8:3],,,4,3,3,1,1,
{8}2h[4:1],,3,,3/4,3h[4:1]/4,,5h[4:1],
{8},4,6,6,1,1,7,7,
{4}8b/3bqq4[16:9],8,7,6,
{8}5h[4:1]/4,,,3,3h[4:1]/5h[4:1],,,,
{4}2/5pp4[2:1],4,3,2,
{8}1,1,4>6[8:3],4,3h[4:1],,,,
{4}4xqq5[2:1]/5x,5,6,7,
{8}8h[4:1]/5h[4:1],,,4,4h[4:1]/7h[4:1],,,,
{4}6pp5[2:1]/4,4,3,2,
{8}4,4,3,3,1x-6[8:1]*-4[8:1],,,,
{8}3h[8:1]/7h[8:1],,4h[8:1]/6h[8:1],,7x-5[8:1],,8h[4:1],,
{4}7x-4[8:1],8h[4:1],7x-3[8:1],8,
{4}1h[8:1]/8h[8:1],2h[8:1]/4h[8:1],3x-8[8:1],5,
{8}6/4,6h[8:1],8,8h[8:1],1,1h[8:1],3,,
{8}4h[8:1]/2h[8:1],,5h[8:1]/3h[8:1],,2x-4[8:1],,1h[4:1],,
{16}2x-5[8:1],,,,1h[4:1],,,,2x,,,,3/8,,2,1,
{8}3,3h[8:1],5,5h[8:1],7,7h[8:1],8,8h[8:1],
{8}2,2h[8:1],4,4h[8:1],6,6h[8:1],7,,
{16}8b/5b,,,,6/4,,,,2/5,,,3,4,,2,,
{16}7/4,,,6,5,,7,,2/5,,,3,4,,1,,
{16}2/8,,,,3/5,,,,7/4,,,6,5,,8,,
{4}3-5[8:1]/4,7-4[8:1]/3,2-6[8:1]/7,2/8,
{8}1x,1,2,2,3,3,4,4,
{8}5,5,6,6,7,7,8,8,
{16}1,8,1,8,2,7,2,7,
{32}3,4,5,6,7,8,1,2,3,4,5,6,7,8,1,2,
{4}3xV52[16:5]/Cf,,8xw4[8:1],8b,
{8}1xV35[4:1]/6h[4:1],,,,E7,8x-3[8:1],,8s4[4:1]/2z6[4:1],
{8},,,,E8/B7/E3/B3,,4x/5x,,
{16}3h[8:1]/4h[8:1],,,3h[8:1]/4h[8:1],,,2/5,,B1,,,,6h[8:1]/5h[8:1],,,6h[8:1]/5h[8:1],
{16},,7/4,,B8,,,,1-6[8:1]/2-5[8:1],,,,1b/2b,,,,
{8}7xV51[4:1]/4h[4:1],,,,E4,2x-6[8:1],,2pp4[16:3]/6pp8[16:3],
{8},,,,E2/B2/E7/B6,,5x/4x,,
{16}6h[8:1]/5h[8:1],,,6h[8:1]/5h[8:1],,,7/4,,2h[8:1]/1h[8:1],,,2h[8:1]/1h[8:1],,,3/8,,
{16}5h[8:1]/4h[8:1],,,6h[8:1]/3h[8:1],,,7/2,,7b-2[8:1]/2b-7[8:1],,,,,,,,
{16}1x/8x-4[8:1],,,,1/8,,,,3/5,,,4/6,,,7/5,,
{16}8/4,,,7/3,,,6/2,,1v4[8:1]/5-7[8:1],,,,1/5,,,,
{16}8-4[8:1]/3,,,,1/8,,,,1/5,,,2/6,,,3/7,,
{16}8-4[8:1]/4,,,,8/3,,2,,1w5[8:1],,,,1,,,,
{8}8x/1x,1,1/2,2,2/3,3,3/4,4,
{8}4/5,5,5/6,6,6/7,7,7/8,8,
{16}1,8,1,8,1,8,1,8,
{32}2,3,4,5,6,7,8,1,2,3,4,5,6,7,8,1,
{4}5b-8[8:1]*-7[8:1]/2x,5q3[4:1],1x,2x,
{8}3/5,2,6/4,7,2-4[8:1]/6-8[8:1],1,2x/6x,,
{8}2-5[8:1]/6-1[8:1],1,2x/6x,,2-6[8:1]/6-2[8:1],1,2x/6x,,
{8}1/7,6,2/5,3,4/7,6,2/5h[4:1],,
{8}1-6[8:1],1,5-1[8:1],5,2,2,8/3,,
{8}6/4,7,3/5,2,6-8[8:1]/4-2[8:1],7,6x/4x,,
{8}3-8[8:1]/5-7[8:1],2,3x/5x,,1/6,2,7/3,6,
{8}1/5,2,8/3,7,2-4[8:1]/6,1-5[8:1],2,1,
{8}8-4[8:1],7-5[8:1],8,7,1,2,8/3,,
{4}3b<6[4:1]/7bp2[4:1],,,1b/8b,
{8}7-4[8:1]/3-8[8:1],8,7x/3x,,7-3[8:1]/3-7[8:1],8,7x/3x,,
{8}8/2,3,7/4,6,2/5,3,7/4h[4:1],,
{8}8>3[8:1],8,4-8[8:1],4,7,7,1/6,,
{8}2/4,1,6/4,8,3-1[8:1]/5-7[8:1],2,3x/5x,,
{8}6-1[8:1]/4-2[8:1],7,6x/4x,,8-4[8:1],7-5[8:1],8,7,
{8}1-5[8:1],2-4[8:1],1,2,8,7,1/6,2,
{4}3bqq4[8:3]/7bqq8[8:3],,,8x-2[8:1]/4x,
{16}3/8,,,,3/4h[16:3],,,3,4,3,4,,2/5-3[8:1],,6,,
{16}5/7,,,,2/1h[16:3],,,2,1,2,1,,8/3-1[8:1],,4,,
{16}3/5,,,,6/5h[16:3],,,6,5,6,5,,7/4-6[8:1],,3,,
{16}2/4,,,,8h[16:3]/7,,,7,8,7,8,,6-1[8:1]/5,,7,,
{16}6/4,,,,3/4h[16:3],,,3,4,2,1,,3/8,,4,,
{16}7-5[8:1]/3-1[8:1],,8/4,,7x/3x,,,,7-4[8:1]/3-8[8:1],,8/4,,7x/3x,,,,
{16}1x/5x,,,,6/5h[16:3],,,6,5,7,8,,1/6,,5,,
{16}5/2,,3,,7/4,,6,,2,3,4,5,1,2,3,4,
{16}8x-3[8:1]/5x,,,,6/8,,,,7/5h[16:3],,,6,5,,8,,
{16}3x/5x,,3,,4/2,,2,,5/3,,6,5,7,,3,4,
{16}2-5[8:1],,,,1/2,,,,8/4,,7,5,6,,4,,
{16}2/6,,3,,4/8,,6,5,6,,7/4,,3,4,3,4,
{16}3,,2/5,,6,5,6,5,6,,7/4,,3,4,3,4,
{16}3,,1/5,,6,5,6,5,6,,8/4,,3,4,3,4,
{16}2,1,2,1,3,8,3,8,
{32}4,5,6,7,8,1,2,3,4,5,6,7,8,1,2,3,
{4}4<3[2:1]/Cf,,,8x,
{1}2bz6[4:6]/8bq4[4:6],
{1},
E
