&title=girls.exe
&artist=rintaro soma
&first=0.05
&lv_5=14+
&des_5=RoxySuki.exe
&inote_5=
(188){4},,,,,Ch[4:1],
,,{1}7/2z6>3[4:13],
,,,2/7s3<6[2:7],
{4},,,,,,,,,,,,3,
4,{8}3/5h[8:3],,,3,
{4}4/2h[2:1],5,{2}6,
{4}6,5,{8}6/4h[8:3],,,6,
{4}5/7h[2:1],4,{2}3,
{16}2,4,2,4,2,4,2,4,3,5,3,5,3,5,3,5,
4,6,4,6,4,6,4,6,5,7,5,7,5,7,5,7,
{24}8bx,1,2,3,4,5,6,7,8,1,2,3,8/4,7,6,5,4,3,2,1,8,7,6,5,
{16}4,6,4,5,3,5,4,5,3,5,4,6,3,5,{8}1bs5[8:7]*v3[8:7],
,,,,,,,,,,,6h[8:1],
{16}4,5,4,5,4,5,4,5,
{8}6/3,2,{4}1-5[8:1],{16}1,8,,,{8}6,6,
{16}3,4,3,4,{8}3,5,4/6,3/7,{4}8-4[8:1]/2-4[8:1],
2-6[8:1]/8-6[8:1],2/8,{16}3,4,,,{8}7-3[8:1],8-4[8:1],
7,8,{16}5,6,7,8,{8}1/5,1h[8:1]/5h[8:1],,,{4}4/7,
{16}6-2[8:1],5,6,5,{8}6,{16}3,1,,2,{8}8,
1/7,{16}2,6,3-7[8:1],5,4,6,{8}3,{16}6,8,,7,{8}1,
{16}6,5,7,7,3,4,2,2,6h[16:3],,,7h[16:3],,,{8}8h[8:7],
{16}E2,,,E7,,,{8}E3,{16},E6,,,{4}E4,
{16},,2,1,{8}2,8/3,8/3,{16}4,7,5-2[8:1],6,4,7,
{8}5,{16}8,1,{8}8-3[8:1],3V17[8:1],8,4,{4}4,
{8}5/3,2/6,{16}1,7,{8}8,6-3[8:1],8-3[8:1],6,8,
{16}5,6,7,8,1,2,3,4,{8}5/2,1/6,{4}7/8-4[8:1],
8w4[8:1],8,{12}7/8,6,5,4/3,2,1,
{4}8-5[8:1]/7-2[8:1],7/8,{8}3-6[8:1],6V41[8:1],3,7,
{4}7,{16}2,8,,,A3,E4,E5,A5,A2,B2,C,B6,
A1,E1,E8,A7,,,,,1/7,1/7,,,2/8,2/8,,,{8}5h[4:1],
3,2,6h[4:1],4,3,7h[4:1],5,
4,8h[4:1],6,5,{2}1<5[8:1],
{8}4h[4:1],6,7,3h[4:1],5,6,2h[4:1],4,
5,1h[4:1],3,4,{2}8>4[8:1],
{8}6/5h[4:1],7,8,5/4h[4:1],6,7,4/3h[4:1],5,
6-1[8:1],2-6[8:1],6,2,8-5[8:1],4-1[8:1],8,4,
6h[8:3],2,3,4,{16}A6,E6,E5,A4,A7,B7,C,B3,
A8,E1,E2,A2,3,4,5,6,7,8,1,2,3/5,6,7,8,
{8}1-6[8:1],2,3,4-1[8:1],5,6,7-4[8:1],8,
1,2-7[8:1],3,4,5-1b[8:1],6-2b[8:1],,,8-3[8:1],
7,6,5-8[8:1],4,3,2-5[8:1],1,
8,7-2[8:1],6,5,4-8b[8:1],3-7b[8:1],,,6-8[8:1],
{16}5,4,{8}6,2-4[8:1],{16}1,8,{8}2,8-6[8:1],{16}1,2,
{8}8,3-1[8:1],{16}4,5,{8}3,7-3b[8:1],8-4b[8:1],7,8,
{16}2,1,8,7,6,5,4,3,2,1,8,7,{8}6V82[4:1]/2V46[4:1],2/6,
,,,,5/1,4/8,7/3,2/6,
{4}6x-2[8:1]/2x-5[8:1],2/6,{12}1,8,7,5,4,3,
{4}2x-7[8:1]/7xv4[8:1],2/7,{12}5,6,7,1,2,3,
{4}4x-8[8:1]/7x-4[8:1],4/7,{12}1,2,3,5,6,7,
{2}8x-5[8:1]/4x-1[8:1],2x-5[8:1]/6x-1[8:1],
{4}3x-7[8:1]/7x-4[8:1],7/3,{12}8,1,2,4,5,6,
{4}7x-2[8:1]/2xv5[8:1],2/7,{12}4,3,2,8,7,6,
{4}5x-1[8:1]/2x-5[8:1],5/2,{12}8,7,6,4,3,2,
{4}5xv8[8:1]/1xv4[8:1],1/5,{8}7/3,7/3,,6/2,
{4}2x-7[8:1]/6x-3[8:1],2/6,{16}8,1,2,3,1,2,3,4,
{4}5x-8[8:1]/1x-4[8:1],5/1,{16}5,6,7,8,6,7,8,1,
{4}2x-7[8:1]/6x-3[8:1],6/2,{16}4,5,6,7,5,6,7,8,
{4}5x-2[8:1]/1x-6[8:1],5/1,{12}7b,7,7,3b,3,3,
{32}8b,7,6,5,,,8b,7,6,5,,,8b,7,6,5,,,,,,,,,2b,3,4,5,,,2b,3,
4,5,,,2b,3,4,5,,,,,,,,,{16}4/7,5,6,7,8,1,2,3,
8b/4b-6[16:1],,,4b/7b-3[16:1],,,{8}7b/1b-7[16:1],{16},1b/4b-7[16:1],,,{4}4b/2b,
{2}1w5[8:1],{16}E2/B2,E6,E4/B4,E8,E3/B3,E7,E1/B1,C,
(140){1}1x-3-5-7-1>1[0.4286##15.1624],
{16},,,,,,,,,,,,,,,(211.5),
{1}Ch[4:1],
,Ch[4:1],
,Ch[4:1],
,Ch[4:1],
{4},,,,B8,
B7,B6,B5,
B4,B3,B2,B1,
B8,B7,B6,B5,
{16}E4,E3,E2,E1,E8,E7,E6,E5,E4,E3,E2,E1,E8,E7,E6,E5,
{1}E4/Ch[8:1],
,2q5[8:11]/7p4[8:11],
,7/2q5[8:13],
{4},,7-4[8:1],7b,
{8}2v5[8:1],5V38[4:1],2,{16}8-4[8:1],7,6-2b[8:1],5,{8}4,,,3-8[8:1],
4,3/6-2[8:1],5,3-7[8:1],4,{4}3,
{8}8-5[8:1],1,8/3-7[8:1],2,8-4[8:1],1,{4}8,
{8}2-6[8:1],6-3[8:1],2,{16}1,8,7,6,{8}5,{4}2b,
{8}7v4[8:1],4V61[4:1],7,{16}1-5[8:1],2,3-7b[8:1],4,{8}5,,,6-1[8:1],
5,6/3-7[8:1],4,6-2[8:1],5,{16}6/1,2,3,4,
{4}5b-1[8:1],5b/3b-8[8:1],3b/6b-2[8:1],{8}6b/1b,8b-3[8:1],
,8b/4b,{4}5b-1[8:1],{2}2bw6[8:1],
{16}4,3,2,1,8,7,6,5,8,7,6,5,8,7,6,5,
4,3,2,1,4,3,2,1,8/4,,,7/3,,,{8}6/2,
{2}1v4[8:1]/5-8[8:1],{8}7-2[8:1],3-6[8:1],7,3,
{16}1,2,3,4,2,3,4,5,3,4,5,6,4,5,6,7,
{8}8b/4h[8:3],,,7h[2:1],,,{4}3h[8:1],
{16}8,4,8,4,1,5,1,5,2,6,2,6,{32}3b,4,5,6,7,8,1,2,
{4}3-6[8:1]/7-2[8:1],3/7,{8}1<6[8:1]/5>2[8:1],1/5,{4}1/5,
5-2[8:1],{8}1/5,8-4[8:1],,8/5,{4}6,
{8}2-5[8:1],5>8[4:1],2,{16}8v3[8:1],7,6-2b[8:1],5,{8}4,,,3-8[8:1],
4,3/6-2[8:1],5,3-1[8:1],4,{4}3,
{8}7-5[8:1],8,7/2-6[8:1],1,2/7-4[8:1],8,{4}7,
2>5[8:1],{8}5,6<1[8:1],,1,{4}2,
{8}3b-8[8:1],3,7b-4[8:1],7,5b-2[8:1],5,1b-6[8:1],1,
8b-3[8:1],8,4b-7[8:1],4,2b-5[8:1],2,6b-1[8:1],6,
2b-6[8:1],2,3b-7[8:1],3,4b-8[8:1],4,5b-1[8:1],5,
6b-2[8:1],6,7b-3[8:1],7,8b-4[8:1],8,{4}6b,
{8}7-4[8:1],4<1[4:1],7,{16}1v6[8:1],2,3-7b[8:1],4,{8}5,,,6-1[8:1],
5,6/3-7[8:1],4,6-8[8:1],5,{4}6,
2b-5[8:1],2b/8b-4[8:1],8b/3b-6[8:1],{8}3b/7b,8b-3[8:1],
,3b/8b,{4}4b-8[8:1],{8}4b/7b,6b-1[8:1],,3b/6b,
{1}Ch[1:1],
{16},,,,,,,,E1,E8,E7,E6,E5,E4,E3,E2,
{2}8x/1x-5[8:1],{8}4h[4:1],{24}1x,8,7,{8}6,3h[4:1],
{24}8x,7,6,5,,,{8}2v5[8:1],5V31[8:1],2,6,{4}7v8[8:1],
{24}A7/2bxv1[8:1],3,4,5,,,7bx/A2,6,5,4,,,{8}6,6,1,1,
{16}8h,8h,8h,8h,8h,8h,8h,8h,{4}8b-5[8:1]*-3[8:1],8b-4-8[4:1],
{2}8b,{16}2h[16:3]/E6/B5,,,7h[16:3]/B3,,,1,2,
3h[16:3]/E8/B7,,,6h[16:3]/B1,,,2,3,{8}4/B8,4/B7,{4}4/B6,
{16}3,4,{8}2,1/8,{16}6,5,{8}7,8/1,{24}2,7,2,7,2,7,
3,6,3,6,3,6,4b,5b,6b,7b,8b,1b/5,2b/6,3b/7,4b/8,5b,6b,7b,8b,1bs5b[5.1291##0.1646],2b/8,3b/7,4b/6,5bh[24:13],
{4},,{32}7x-3-7[8:23],B7,Cf,B3,{1},,,{4},{16}4h[16:1],
5h[16:1],
3h[16:1],6h[16:1],2h[16:1],7h[16:1],{4}1h[16:1],
E
