&title=shou jo rei
&artist=mikitoP
&first=0
&lv_6=13
&des_6=Chinese Domestic Cat
&inote_6=
(150){4},,,,,,,,7bx/2bx,
6/3,{8}5,4,5,4,
{1}5v2[2:1],
{4}8/6,6/4,{8}4,3,2,1,
{1}4/8-6v4[2:1],
{4}3h[4:1],4h[4:1],{8}5,6,7,8,
{1}1-7-3[2:1],
{4}6h[4:1],5h[4:1],{8}4,3,2,1-4[8:5],
{1}8-6-1[2:1],
{4}8-5[8:1],3/8,3,8qq8[4:1],
{8}3,3,{4}3,{2}6/4,
{16}8-5[8:1],,,3,{8}8,2,{4}2,{8}8-5[8:1],3,
{4}8/1,3,{8}6/2,,,4h[8:1],
{4}8-5[8:1],8,{2}3h[4:1],
{4}5/8-5[8:1],8/3h[4:1],{2}6,
{4}2/8-5[8:1],2/8-4[8:1],2/8-3[8:1],2/8-5[8:1],
8b,6b,{2}4bh[4:1],
{16}1-4[8:1],,,5,{8}1,7h[8:3],,,,,1,
5/6,{4}1-4[8:1],{2}1/4,
{4}7h[4:1],6h[4:1],5h[4:1],4h[4:1],
3,{8}2-5[4:1],1,{2}8,
5h[4:1]/6h[4:1],{8}5,4,3,2,
{2}1-4[8:1],7/3,
{4}7h[4:1],6h[4:1],5h[4:1],4h[4:1],
3h[4:1],2h[4:1],{2}1h[4:1]/Cf,
{8}8,1,7,2h[8:5],,,,,,5,
{4}5v8[4:1],{2}3h[4:1],
{8}6,2,5,4,5,6,5,7h[8:1],
,6h[8:1]/5h[16:1],,4h[8:1]/3h[16:1],,8h[8:1]/6h[16:1],,3bh[4:1]/1bh[16:1],
,,5/6,1,4/3,8,{4}Cf,
8b-6[8:1]/1b-5[8:1],1/8-4[8:1],{8}8/2-4[8:1],7x,6/2-5[8:1],1x,
{4}2/7s3[4:1],7h[4:1],{8},,6,7,
{4}8x-6[8:1],8/1x-5[8:1],1x,{16}2x/E3,E4,{8}A4,
{4}8-4[4:1],{8}8/4w8[4:1],4h[8:1],,,{4}A7/D8/D1/A1/A8f,
2/8-5[8:1],3h[8:1]/8-4[8:1],{16}8<5[8:1],,,2x,{8}2x/8p4[8:1],3h[8:1],
{16}8q4[8:1],,,2,{4}2h[8:1]/8<5[16:3],{8}4/8x,,,1`5x,
{4}1-6[8:1]*-7[8:1],1-4[8:1]*-3[8:1],1-5[8:1],5/1V75[8:1]*-3[8:1],
1,{8}1-5[8:1],1,1b,B7/E8,B6/E6,3,
{4}5b/4-8[8:1],4-6[8:1]*-7[8:1],4,{8}3,2,
{4}1-6[8:1]/8-5[8:1],8/1-4[8:1],1/3,{8}8/7,4/2,
{4}5-8[8:1]*-1[8:1],5-3[8:1],5-7-1[4:1],1V35[4:1],
5<1[4:1],{8}1>5[4:1],1,5h[8:3],,,6,
7/C,8,1/C,2,{2}3h[4:1]/C,
{4}3p1[2:1],{8}5-8[4:1],5,{2}5,
{8}6xh[2:1],,,,,2/B6,3/B8,4h[8:9]/Ch[8:5],
,,,,,,,,,,5/1,
4/8,3/7,2/6,{4}1xh[4:1],
Cf,7-4[8:1]*-5[8:1],7-1[8:1],7/3V51[4:1],
{8}1-3[8:1],1,{4}4,8-6[8:1]*-2[8:1],8b-4[8:1],
{8}8,1,{4}2x-6[8:1],2/1x-5[8:1],1/8x-4[8:1],
8x-6[8:1]*-2[8:1],8p4[8:1],{8}8q4[8:1],2,8b,1,
2,3,{4}4-2[8:1],{8}4/1-5[8:1],7,{4}1/6-8[8:1],
{8}6/2-4[8:1],3,{4}2/6-8[8:1],6/1bxpp5[4:1]*qq5[4:1],1,
,7b-4[8:1],8-4[8:1],1-4[8:1],
1b,5,{8}5,6,7,8,
{16}1x,2x,3x,4x,{4}5x-1[8:1],7/5,7-3[8:1],
{8}1/7,1,{16}1x-5[8:1],2x,3x,4x,{4}5x/1,7/3-7[8:1],
{8}3,2,{4}1-5[8:1],1/8-4[8:1],8/7-3[8:1],
7b,5h[8:1]/4h[16:1],4h[8:1]/3h[8:1],Cf,
{8},6,6,5,5,4h[8:1],,,,3-8[8:1],
{4}8V25[8:1],{8},6x,4-7[8:1],7V15[8:1],
,,{4}6xh[2:1],{8},,,,4pp5[4:3],
4qq4[8:5],,,,,,,,,{4}7-5[8:1],
8-4[8:1],1-3[8:1],
{8},5,5,7h[8:1]/6h[16:1],,6x,{4}6h[8:1]/5h[16:1],
{8}5x,4h[8:7],{4}2,{8},,,,,,1-6[8:1],
8-3[8:1],1-4[8:1],8bx-5[8:1],{16},,,,,,,,8x-5[8:1],
,,5,{8}8,2,2,1,
{4}1,{16}8x-5[8:1],,,5,{8}8,2,2,1/2,
{4}1/2,{16}8x<5[8:1],,,5,{8}8,3,2/4,2/4,
{4}2/4,{16}8xV64[8:1],,,4,{8}8,2,5/1,5/1,
{4}6/2,{16}1-5[8:1],,,5,{8}1h,6,8,8/4,
{4}8/4,{16}1>4[8:1],,,5,{8}1h,5,8h[8:1],5h[8:1],
8h[8:1],5h[8:1],,,{4}8V24[4:1],4V68[4:1],
8>4[4:1],4<8[4:1],{2}8-4-8[4:5],
{1}5h[2:3],
{4},6,,7-5[8:1],
7/4-8[4:1],8x>4-6[2:1],,6q2[1:1]*-3[1:1],
{1},{4},{16}4/6h[16:3],
,,4,{8}4-1[8:1],3,{4}4/7,
6,{16}5/3h[16:3],,,5,{8}5-8b[8:1],6,5/3,2,
{4}1,1h[1:1],,7,
6,5x-1[2:1],,,A5,
7h[4:1],4,{8}8,1,
6v4[8:1],3,{4}6,,3`7,
,6h[4:1],4h,{8}6h,4h,
6v4-2[4:1],4h,{4}6h,,2h`6,
{8},,7h[8:1],3h,6h[16:1],4h,{16},7,,,{8}3h[16:1],
{16}6,8,,,2h,2,,,{8}5,{16}5,6h,7,8h,
{32}1bx>3-6[0.4##0.2]*>3p7b[0.4##6],,,,,,,,,,,,{8}A6f,
E
