&title=8bit Adventurer
&artist=Lime
&first=-0.01
&des=hhh02081
&lv_5=14+
&inote_5=(197)
{1},
{8}2V48[4:7],,6,6,,6,,6,,6,,6,,6,,6,
{8}7V15[4:7],,3,3,,3,,3,,3,,3,3,,3,3,
{8}4V62[4:7],,8,8,,8,,8,,8,,8,,8,,8,
{8}7h[8:5],,8,1-5[8:1],,1,,
{8}7<4[8:1],8b,{24}8,1,2,{8}3h[8:1],,1h[8:1]/2,{24}2b-6[8:1],38,47,
{8}5/6-2[8:1],27,
{8}7h[4:1],,1,1-3[8:1],7,1-5[8:1],8,1,7,7-1[8:1],3,7-5[8:1],4,7-3[8:1],3-5[8:1],2,
{8}2-6[8:1],,2,8-4[8:1],4,8-2[8:1],3,8-6[8:1],4,8,2,5,2h[8:3],{24}6,7,8,{8}1h[8:1],,
{8}38,3,35,3,13,3,34,3,37,7,17,7,67,7,27,7,
{16}1,8,1,8,2,7,2,7h[16:3],{24}3,2,1,
{8}8<5[8:1]*-5[8:1],17,8b>3[8:1]*-3[8:1],,8b-4[8:1],,8b/1>4[8:1],1,{24}5,6,7,{8}8,8,
{32}1b/8h[8:1],2,3,4>5[32:41]*q5[32:41],,,,,{4},,,,,,,
{32}8b/1h[8:1],7,6,5<4[32:41]*p4[32:41],,,,,{4},,,,,,,
{32}1b,28,37,46,,,,,{16}8,8,8,8w4[16:2],1/7b,,1b/7,,,,,,
{32}2bw6[16:1],31,48,57,,,,,{16},,,,
{32}8b,71,62,53,,,,,{16}26,,26,,
{16}1,7,1,7,{8}8-4[8:1],8,,6,3/7,48,1h[8:1]/5h[8:1],{24},48,37,{8}26,5,5,73,1h[16:1],1h[16:1],
{24}8/2b,3,4,5,6,7,8w4[8:1],1,2,{8}3/8h,8h,,2z6[8:1]/6,3,2b,,
{16}8p4[8:1]*q4[8:1],8,8,8,,,,3h/5h,2v8[8:1]/6h,1h/7h,8V24[8:1],,
{12}2b,,,6z2[8:1],6,6,6b,,,4,4,4,8,8,8,{16}4h/8-4[8:1],3h/7h,2h/6h,1h/5h,,,7h[12:1],,7h[12:1],,8h[12:1],,
{24}1/7b,6,5,4,3,2,1w5[8:1],8,7,{8}6/1h,1h,,7s3[8:1]/3,62,7b,,
{16}1-5[8:1],1,1-7[8:1],1,,,,,4h,3h,2h,1h,
{16}8h/6V48[4:1],,1-3[8:1],,6h,,1h,,,,2-5[8:1]/6,,1/5-1[8:1],,,,
{16}8b,7,{8}6-2[8:1],,6b/1-5[8:1],,1b/8h[4:1],,,
{24}1/7b,6,5,4,3,2,1w5[8:1],8,7,{8}6/1h,1h,,7s3[8:1]/3,15,7b,,
{16}1q5[8:1]*p5[8:1],1,1,1,,,,6h/4h,7v1[8:1]/3h,8h/2h,1V75[8:1],,
{12}7b,,,3s7[8:1],3,3,3b,,,5,5,5,1,1,1,{16}5h/1-5[8:1],6h/2h,7h/3h,8h/4h,,,2h[12:1],,2h[12:1],,1h[12:1],,
{24}8/2b,3,4,5,6,7,8w4[8:1],1,2,{8}3/8h,8h,,{16}2z6[8:1]/6,37,48,,{4}2b,
{16}8-4[8:1],8,8,8,,,,,51,62,73,84,
{1}1p4[4:2]/5p8[4:2],
{24}7b/1b,62,53,{8}4w8[8:1],,4b,,6/2,,,
{12}7/1b,2,3,5,6,7,2,3,4,6,7,8,
{12}3,1,2,8,1,7,3,5,4,6,5,7,
{12}4,3,2,8,7,6,3,2,1,7,6,5,
{12}2,4,3,5,4,6,2,8,1,7,8,6,
{12}1,2,3,4,5,6,2,3,4,5,6,7,
{12}2,8,3,7,4,6,1,7,2,6,3,5,
{12}3,2,1,8,7,6,4,3,2,1,8,7,
{16}2b/6,,,,8,8,8,8,8,,17,,6,4,5,,
{12}3/7b,6,5,41,2,3,48,7,6,52,3,4,
{12}6,5,7,4,5,3,7,8,6,1,8,2,
{12}36,7,8,14,3,2,15,6,7,85,4,3,
{12}8,1,7,2,1,3,5,4,6,3,4,2,
{12}51,2,3,4,5,6,72,3,4,5,6,7,
{12}3,8,4,7,5,6,8,7,1,6,2,5,
{12}43,2,1,8,7,6,54,3,2,1-5[8:1],8,7,
{1}6/1bV35[4:2]*V75[4:2],
{16}7h[16:15]/1b,,1,,,,5,,,3,,,6,,,2h[16:15],,,6,,,4,,,7,,,3,,,1,,
{8}5/6,8,3/4,1,6/4,8,5/3,1,3/6,4-8[8:1]/5-1[8:1],,4b/5b,{16},,2,7,,,4/5h[4:1],,
{16}4b,3,2-5[8:1],,,,2/6,,,8-4[16:1],,,18,,,
{16}3-8[16:1],,,37,,,5-1[16:1],,,15,,,3-8[16:1],,,73,,
{24}7b,6,5,4,3,2,1,8,7,6/2V84[4:1],,,{8}2,,4,6,
{24}38,,,2,1,2,{8}1,8/4w8[8:1],,4b,,26,
{16}2h[16:15]/7b,,7,,,,4,,,6,,,3,,,7h[16:15],,,3,,,5,,,2,,,6,,,8,,
{8}4/3,1,6/5,8,3/5,1,4/6,8,6/3,5p8[8:1]/4q1[8:1],,5b/4b,{16},,7,2,,,5/4h[4:1],,
{16}5b,6,7-4[8:1],,,,7/1-5[16:1],,,8-3[16:1],,,2-6[16:1],,,
{16}4-8[16:1],,,1-5[16:1],,,7-4[16:1],,,2,,,36,,,27,,
{16}1,8,2,7,{24}3,4,5,6,7,8,{32}1,2,3,4,5,6,7,8,1,2,3,4,5,6,7,8,
{8}1b,,2b,,3b-1[8:1],4b,3b/5b,,
{16}78,,6,5,7<4[8:1],,8,1,7,,3,,12,,3,,
{16}45,,6,,78,,6,5,7-3[8:1],,8-4[8:1],1,7<4[8:1],,8,,7,,3,,
{24}82,7,6,{8}5,8>3[8:1]/5<8[8:1],,8b/5b,,{24}4,5,6,7,8,1,{4}2b-6[8:1]/6b-2[8:1],,8b/4b,
{16}18,,3,4,2>5[8:1],,1,8,2,,6,,87,,6,,
{16}54,,3,,2v5[8:1]/1,,3,4,2,,7,,48,37,26,15,4/8h[8:1],,6,,
{24}8b/7,1,2,{8}3,8<5[8:1]/3>8[8:1],,8b-4[8:1]/3b,,
{16}7b,6,{4}5-1[8:1],{24}5/1b<6[8:1],2,3,4,,,5b,4,3,2,,,,,,
{16}21,,3,4,2>5[8:1],,1,8,2,,6,,87,,6,,
{16}54,,3,,21,,3,4,2-6[8:1],,1-5[8:1],8,2>5[8:1],,1,,2,,6,,
{24}17,2,3,{8}4,1<6[8:1]/4>1[8:1],,1b/4b,,{24}5,4,3,2,1,8,{4}7b-3[8:1]/3b-7[8:1],,1b/5b,
{16}2h[8:2]/8,,,,,,6b/2b,3v8[8:1]/5v8[8:1],4,,,35,,,2,,
{16}2h[4:1],,,,7v4[8:1],2,8,1,7,,,,51,62,73,84,5/1h[8:1],,3,,
{24}1b/2,8,7,{8}6,1/6<1[8:1],,{24}1bV35[8:5]*V75[8:5]/6b,2,3,4,,,
{1},
{32}8b/2h[8:1],7,6,5<4[32:41]*pp4[32:41],,,,,{4},,,,,,,
{32}1b/7h[8:1],2,3,4>5[32:41]*qq5[32:41],,,,,{4},,,,,,,
{32}7b/1b,62,53,4,,,,,{16}1,1,1,1,8v5[16:1]/2bv5[16:1],,8b/2,,,,,,
{32}6bv3[16:1]/8bv3[16:1],51,42,3,,,,,{16},,,,
{32}2b/8b,37,46,5,,,,,{16}73,,73,,
{16}8,2,8,2,{8}1-5[8:1],1,,4,37,28,
{8}1b,,2b,,3b-1[8:1],{16}4b,5b,3b,
