&title=将军的茶
&artist=星穹铁道x茶百道 联动OST
&first=0.045
&des=Zirconium
&wholebpm=136.000
&lv_5=12+
&des_5=Zirconium
&inote_5=(136)
{16},,,,
5h[16:24]/3>3[16:47],,,,
,,,,
,,,,
{16},,,,
,,,,
,,,,
,,,,
{16},,,,
,,1-5[8:3],,
,,,,
,,,,
{16},,,,
,,,,
{32},,,,,7-2[16:51]*-2[16:51],,,
{16},,,,
{16},,,,
,,,,
,,3-6[32:11],,
,,,,
{16},,,,
,,,,
,,,,
,,6h[32:24],,
{16},,,,
,,,,
,,,,
,,,,
{16},,8b,,
,,,,
E7,,,,
C,,,,
{16}E3,,,,
6-8[8:1],,2,,
,,3,,
4-2[8:1],,8,,
(136)
{16}7>4[4:1],,,,
4>7[4:1],,,,
7V13[4:1],,,,
3>5[4:1],,4,,
{16}5,,,,
3>8[8:1],,4,,
,,6,,
5qq3[8:1],,4,,
{16}2<5[4:1],,,,
5<2[4:1],,,,
2>7[4:1],,,,
7<2[4:1],,8,,
{16}1,,,,
8p6[4:1],,,,
5,,4,,
3-8[8:1]*-7[8:1],,,,
{16},,,,
1/6,,2/5,,
4-6[8:1]/3-7[8:1],,,,
3-1[8:1]/4-8[8:1],,,,
{16}4/3,,,,
5/6V47[4:1],,,,
8,,1,,
2-5[8:1],,1/8,,
{16}7,,,,
6b/5b,,,,
8b/1b<3[8:3],,,,
3b/1b,,,,
{16},,,,
2h[8:1],,1,1,
3,,4/5,,
6>3[8:1],,,,
{16}6h[1:1],,,,
{32}2x,1x,8x,7x,,,,,
8x,1x,2x,3x,,,,,
2x,1x,8x,7x,,,,,
{32}1x,2x,3x,4x,,,,,
{16}7h[8:1],,8,8,
6,,4/5,,
3-8[8:1],,,,
{16}3h[4:1],,,,
{32}7x,6x/2x,5x/1x,,,,,,
2x/6x,3x/7x,4x/8x,,,,,,
4x/7x,3x/6x,2x/5x,,,,,,
{32}2x/5x,3x/6x,4x/7x,,,,,,
{16}8h[4:1]/7<3[16:3],,,,
,,,,
8,,1,,
{16}2q4[4:1],,,,
4<2[4:1],,,,
,,,,
5,,7/8,,
{16}3-8[8:1]*-6[8:1],,1/2,,
,,,,
7>5[4:1],,7,,
6-2b[8:1],,,,
{16},,,,
1b/5b,,,,
8b/4b<2[2:1],,,,
4b/3b,,,,
{16},,,,
Cf,,,,
,,8h[8:9]/1<8p1b[8:11],,
,,,,
{16},,,,
,,,,
,,,,
,,,,
{16},,,,
{64},,,,,,,5h[64:89],,,,,,,,,
{16},,,,
,,,,
{16}B7,,C,,
,,E2,,
,,E5,,
,,,,
{16},,,,
Ch[1:2],,,,
,,,,
,,,,
{16}7,,7,,
,,6,,
,,5,,
,,6,,
{16}6-2[8:1],,,,
,,,,
,,,,
,,,,
{1}
