&title=Magnolia
&artist=M2U
&first=0
&des_1=ClaudiaDean/M0caziran
&des_2=ClaudiaDean/M0caziran
&des_3=ClaudiaDean/M0caziran
&des_4=ClaudiaDean/M0caziran
&lv_4=1
&des_5=ClaudiaDean/M0caziran
&lv_5=13+
&des_6=ClaudiaDean/M0caziran
&des_7=ClaudiaDean/M0caziran
&des=ClaudiaDean/M0caziran
&inote_4=(160){4},{1},,,,,,,,,,,,,,,,,,,,,,,,,,,,,,,,,,,,,,,,,,,,,,,,,,,,,,{4},{32}1,
2,3,4h[32:3],,,6,7,{8}8-4[8:1],B3h[16:1]/B2h[16:1]/E3h[16:1],
{16}8b,,,3,,4/6,{8}4/6,{32}2b,3,{16}4,{32},,5,6,{8}7,6,
{32}1b,2,3,4,1,8,7,6,E3,B3,B4,E5,E7,B7,B8,E1,{2}3,
E
&inote_5=(160){4},,,,B6,
4h[4:1],3h[4:1],4h[4:1],
{8}5h[8:3],{16},,,,B4,B3,{2}E3h[2:1],
{4}6,{16}7,8,7,6,{4}7h[4:1],5h[8:5],
{8}6h[8:3],{16},,,,E7/E5,B4/B7,{2}B3h[4:1]/B8h[4:1],
{4}1/7,{16}1bx-5[4:1],2,3,4,{4}5bxV71[4:1],B3,
3,{16}1x-5[4:1],8,7,6,{4}1b/5bxV31[4:1],B7,
8,{16}7,5,7,5,{4}7-2[8:1],7/3-6[8:1],
{2}3b/8h[2:1],{16}E2h[32:0],E3h[32:0],E4h[32:0],E5h[32:0],E6h[32:0],E7h[32:0],E8h[32:0],E1h[32:0],
{8}2x/6,3,5,6/1,,,{4}7h[8:3],
{8},8,1,2,{2}3h[2:1]/4h[2:1],
{8},,5-7[8:1],5-3[8:1],5-8[8:1],5-2[8:1],,,B6,
B7,B8,B1f/3-8[8:1],,,{4}B6,
{8}1-4[8:1],1-6[8:1],,,,B3,{4}E5/Ch[4:1],
{8},E3,E2,E1,{2}E7/Ch[2:5],
{16}B5,,,E8,{32},,,E6,,,,,B8,,,,,E7,,,,,{16}B5,,,{1}E7h[1:1],
{4},,,6h[4:1],
{2}1>4-8[2:1],{4}5,4<8[4:1],
8>4[4:1],4<8[4:1],{2}8,
6-4v5V71[4:3],2h[4:1],
3h[4:1],4h[4:1]/8h[4:1],
{4}1<5-2[2:1],5,2<6[4:1],6V42[4:1],
2V84[4:1],4V26[4:1],1,3h[2:1],
{2}4V68>6[4:5],4h[4:1],
1h[4:1],2,
5bh[4:1]/1b<6-2[2:1],{4}1,7,
6/2,1/5,{2}4b-7[8:1]/8b-3[8:1],
4bh[4:1]/8b-6-1-5[4:3],3h[4:1],
{4}2h[8:1],1h[8:1]/5b<8[8:1],{2}5b/2b-6b[8:1],
{4}5/7>3V57[2:1],2>7b[4:1],7V13[4:1],3q7[4:1],
7q3[4:1],3q1[4:1],{2}1b,
5bh[4:1]/1bV37>8-4[4:3],6h[4:1],
7h[4:1],8b-3[8:1]/4b-7[8:1],
{8}2h[4:1]/6b-4[8:1],,,2b-6[8:1],,,{4}7bh[4:1],
8b>5[4:1],6b<8[8:1],,1b/5bV31[4:1],
{8}1V75V31b[2:1],,,1bx,,,{4}5bx-1[8:1],
{8}6h[8:3],,,5bh[8:3],,,{4}4h[4:1],
{8}2bh[8:3],,,8h[8:3],,,{4}7b,
{24}1bx,8,1,8,1,8,1,8,1,8bx,1,8,1,8,1,8,1,8,1bx,8,1,8,1,8,
{4}1bx-5[8:1],{8}6,8-3[8:1],,,{4}2V83-7[2:1],
{8}4h[4:1],{24},,,,,,B4,B3,B2,B1,B8,B7,B6,B5,B4,B3,B2,B1,B8,B7,B6,
{8}5xh[2:3],,,7,{2}7b-1>2-4-6<8-2>5-7b[4:3],
{4},,A7f,1x,
{8}4bxh[2:3],,,2,{4}2b-8<7-5-3>1-7<4-2[4:3],A2f,
,,{2}A2h[2:1],
{1}Cf,
,6<3[2:1],
3>4b[4:3],
{4}8b,1/B5h[8:1],1,2/B6h[8:1],
2,3/B7h[8:1],3,4/B8h[8:1],
B1h[8:1]/B2h[8:1]/E2h[8:1]/4bV28v3[2:1],{8}4,7bx<6-4>8b[8:3],,,{4}A3,
{16}B4h[8:1],,,7x,7x,B3h[16:1],{8}8xw4b[8:1],{32},,,,,,,,,,,,,,,,7bx,
6x,5x,4xh[32:13],{96},,,,{6}8,8,{96}8b,,,1,,,{32}2,3h[32:9],,,,,{8}8,{16}8,8,
{6}2bh[8:1],{48}6,,,,,,,5/1,,,{8}1/5,8>3b[8:1]/4v7b[8:1],4/8,{4}4/8,
{32}7bx,6x,5x,4xh[32:13],{96},,,,{6}8,8,{96}8b,,,1,,,{32}2,3h[32:9],,,,,{8}8,{16}8,8,
{8}2b-6b[8:1],1,2/4-8[8:1],5,4/3<1b[4:1],2,{4}3/7,
{32}6,D2,A2,D3,{96},,,,{6}6,6,2/B6f/B7/E7/E6,{48}2,,,,,,,3,,,{8}3,
{4}4/8V62[4:1],{8}3,3,4v7b[8:1]*v1b[8:1],4,{4}4x,
{32}2x/6x,3/5,{16}4,{48},,{6}4x,6/2,3b/5b,6b/1b,7b/8b,
{4}2-6[8:1],{8}6,7-5-1[4:1]*-5-2[4:1],{32},,,,,,,,,,,,,,,,8/3>8>3[4:1],
7/4,{16}6/5,,,{8}5-8[8:1]/3bv8>2-6b[16:5],4,{2}5,
{6}1b,1,3/7,{24}6v1[8:1]/4v1[8:1],,,5,,,{4}4/6,
{32}8-4-8[4:1],7,6,5,,,,,{8}3-1-6-4-8[2:1],1,{2}3,
{8}5b-2[8:1],6,5/1-6V82b[4:1],8,{4}1x,5b,
{32}6b/2-6[8:1],3/7,{16}4/8,,,{8}2-8[8:1],8-4[8:1],{6}2,6b,7bh[3:2],
1,3,5,2,4/8,1/6,
{4}7-3[8:1],{8}3,2-4-8b[4:1]*-4-7b[4:1],{4},,{16},,{32}1b/8b,
2b/7b,3b/6b,4b/5b,,,,,,,,,{2}B7h[8:1]/E7h[8:1]/B6h[8:1]/B2h[8:1]/B3h[8:1]/E3h[8:1],
3h[4:1]/6b<3[4:3],{4}4,5,
6<3b[4:3],4b,{2}5h[4:1],
{4}6-2-8-5[4:3],3b,4,3,
2b,{16}1,7,2,8,{4}3h[4:1],{32}8,7,6,5,4,3,2,1,
{4}8b/4bV28v5[4:3],7,{2}6h[4:1],
{4}4<7[4:1],8,{2}2b-6[8:1],
{4}7/4,{16}6,4,5,3,6,2,7,4,{4}3xv6[8:1]/8xv5[8:1],
3bx/8bx,{16}4,7,5,6,{4}4b/8w4[8:1],8b,
{8}7h[4:1]/3b-5[8:1],,,7b-3[8:1],,,{4}2bh[4:1],
1b<5[4:1],3b>1[8:1],,8b/4bV68[4:1],
{8}8V24V68b[2:1],,,8bx,,,{4}4bx-8[8:1],
{8}3h[8:3],,,4bh[8:3],,,{4}5h[4:1],
{8}7bh[8:3],,,1h[8:3],,,{4}2b,
{24}8,7,6,4,3,2,1,7,6,5,3,2,1,6,5,4,2,1,8,7,6,5,4,3,
{4}6b/2b>4-7[4:1],{8}7V13[4:1],8bx,,,{4}5bz1[4:1],
4b,{8}4,{24}B4,B5,B6,B7,B8,B1,B2,B3,B4,B5,B6,B7,B8,B1,B2,
{8}3xh[2:3],,,1b,{4}1,{32}8,7,6,5,{16}4,{32}2,1,
8,7,6,5,{16}4,{32}2,1,8,7,6,5,{16}4,{32}2,1,{4}A8f,8x,
{8}5bxh[2:3],,,8,{4}8b,{32}1,2,3,4,,6,7,8,
1,2,3,4,,6,7,8,1,2,3,4,,6,7,8,{2}A1fh[2:1],
{1}5<6-1>4qq7[4:5],
,{384}5p8p6[384:575],
1p4p2b[384:575],
E
