&title=Pallet
&artist=月島春果 / PSYQUI
&first=0
&des_1=情感的瞬
&des_2=情感的瞬
&des_3=情感的瞬
&des_4=情感的瞬
&des_5=情感的独
&lv_5=13+
&des_6=情感的瞬
&des_7=情感的瞬
&des=情感的瞬
&inote_5=(142)
||s4/4
{1},
||s3/4
{4},,,
{4},,,
||s2/4
{4},,
||s3/4
{4},,,
{4},,,
||s2/4
{4}2b-5[8:1]/4b,2b/7b-4[8:1],
||s3/4
{4}5,5,5,
{4}5,5,5<2[4:2],
||s2/4
{4}4,4,
||s3/4
{4}3,3,3,
||s2/4
{4}3,3,
||s3/4
{16}2,2,,34,
,56,,7,
5,,5,,
||s3/4
{16}7b,5,6,4,
,2,4,3,
6,4,5,5,
{16}4,7,5,6,
,3,5,4,
7,5,6,6,
||s2/4
{16}4,5,3,6,
1,8,2,7,
||s3/4
{16}4,6,3,5,
,2,4,3,
6,4,5,5,
{16}4,7,5,6,
,3,5,4,
7,5,6,6,
||s2/4
{4}2b-5[8:1],2b/8b,
||s3/4
{16}7b,2,5,3,
,7,5,6,
3,5,4,4,
{16}5,2,4,3,
,6,4,5,
2,4,3,3,
||z7/4
{16}5b,4,6,3,
8,1,7,2,
||z6/4
{16}8b,3,6,4,
,7,5,6,
3,5,4,4,
||s4/4
{16}6,{32}4,5,{16}4,7,
5,6,1bw5[8:1],,
,,,,
,,,,
{16}3/6-3[8:1],,2,,
6,1,1,,
4-7[8:1],,2-5[8:1],2,
,,,,
{16}7,,6,5,
6,5,7,,
1-5[8:1],8,2,7,
1b,,8,,
{16}4/6-1[8:1],,2,,
6,3,3,,
8-4[8:1],,3-8[8:1],3,
,,,,
{16}5,,2,4,
3,4,2,,
7-4[8:1],4,6,5,
7b,,2,,
{16}6/3-6[8:1],,7,,
3,8,8,,
5-2[8:1],,7-4[8:1],7,
,,,,
{16}2,,3,4,
3,4,2,,
8-4[8:1],1,7,2,
8b,,1,,
{16}5/3-8[8:1],,7,,
3,6,6,,
1-5[8:1],,6-1[8:1],6,
,,,,
{16}3,8,5,6,
2,7,4,5,
2b-6[8:1],,,,
2b/8b-4[8:1],,,,
{16}8,,3,,
,3,,,
3,,,3,
,,,,
||s3/4
{16}8/7V53[4:1],,,1,
,,1,,
2,,,,
{16}1/2V46[4:1],,,8,
,,8,,
7,,,,
{16}4/7V51[4:1],,,3,
,,3,,
2,,,,
{16}8/2V84[4:1],,,7,
,,7,,
6,,,,
{16}5/6V82[4:1],,,4,
,,4,,
3,,,,
{16}8/3V51[4:1],,,7,
,,7,,
6,,,,
{16}1/6V48[4:1],,,2,
,,2,,
3,,,,
{16}7/3V17[4:1],,,6,
,,6,,
5V71[4:1],,,,
{16}1b,,,2,
,,2,8,
3V51[4:1],,,,
{16}7,,,6,
,,6,2,
5V37[4:1],,1,,
{16}1,,,1,
,,2,6,
2V46[4:1],,,,
{16}1,,,8,
,,8,,
7/1V35[4:1],,62,,
{16}15,,,8,
,,8,4,
7V51[4:1],,,,
{16}2,,,3,
,,3,8,
3V15[4:1],,8,,
{16}7,,,7,
,,7,4,
6,,3,,
||s4/4
{16}5,2,4,3,
7,5,6,2,
4b-8[8:1],,,,
3,,,,
||s3/4
{16}7b-3[16:1],,,2-5[16:1],
,,4,,
4,,,,
{16}3-8[16:1],,,5-1[16:1],
,,2,,
2,,8,,
{16}7-4[16:1],,,3-7[16:1],
,,5,,
5,,,,
{16}8-4[16:1],,,6-1[16:1],
,,2,,
2,,38,,
{16}4/7-4[16:1],,,3-7[16:1],
,,5,,
5,,,,
{16}1-5[16:1],,,6-1[16:1],
,,3,,
3,,,,
{16}8-4[16:1],,,2-5[16:1],
,,6,,
6,,7,,
{16}8-4[8:1],,,,
3^8[8:1],,,,
5-1[8:1],5,,,
{16}2b-6[16:1],,,8-5[16:1],
,,4,,
3h[16:4],,,,
{16}6-1[16:1],,,2-5[16:1],
,,8,,
7,,4,,
{16}7-4[16:1],,,3-8[16:1],
,,5,,
6h[16:4],,,,
{16}5-1[16:1],,,7-4[16:1],
,,2,,
3,,6,5,
{16}7-2[16:1],,,3-7[16:1],
,,1,,
8h[16:4],,,,
{16}2-5[16:1],,,8-5[16:1],
,,3,,
2,4,3,4,
{16}1-5[16:1],,,7-4[16:1],
,,3,,
2,,,,
||s4/4
{16}4-8[16:1]/6,,,7,
,,7,,
1b/8b,,34,,
6,5,7,,
||s3/4
{4}2>7[4:3],,,
{4}8pp5[4:3],,,
{4}4>8[4:2],,,
{8}5qq6[4:2],,,8,,,
{4}1>5[4:2],7,7,
{4}8^5[4:1],3,3,
||s4/4
{16}1,7,2,5,
3,8,5,7,
2,6,3,4,
1,7,2b-6[8:1]/6b,,
{8},7b,8b-4[8:1],,
1b/8b,,5/3>6[4:1],,
||s4/4
{4}3b/6<4[4:1],4qq6[4:1],6<3[4:1],8,
{4}5qq4[4:1],4<2[4:1],2<5[4:1],5pp4[4:1],
{4}4p8[8:1],3>7[32:7],6<4[4:1],4qq5[4:1],
{4}5,8-4[8:1],8^3[8:1]/4^7[8:1],8,
{4}8p4[8:1]/4^1[8:1],84,8-4[8:1]/4^7[8:1],4/8>5[4:1],
{4}8/5<2[4:1],2<3[16:5],4,,
{16}34,,17,,
5,3,8,2,
34,,17,,
5,3,1,2,
{16}6,5,8,2,
4,3,7,1,
2b-5[8:1]/6b-4[8:1],,,,
2b/6b<3[4:1],,,,
{4}6b/3>6[4:1],6pp4[4:1],4>6[4:1],2,
{4}3pp4[4:1],4>7[4:1],7>4[4:1],4qq5[4:1],
{4}5q1[8:1]*q1[8:1],6<2[32:7],3>5[4:1],5pp4[4:1],
{4}4,1-5[8:1],1^6[8:1]/5^2[8:1],1,
{4}1q5[8:1]/5^8[8:1],15,1-5[8:1]/5^2[8:1],5/1<4[4:1],
{4}1/4>7[4:1],7<8[16:5],5h[4:1],,
{16}78,,78,,
16,,16,,
35,,12,,
8-4[8:1],3,6,5h[16:9],
{4}8b,,3>2[32:1]*>1[32:2]*>8[32:3]*>7[32:4]*>6[32:5],,
||s4/4
{16}3,5,2,6,
3,7,4,7,
1,6,1,5,
2,7,3,6,
{16}4^1[8:1],,,6,
4,,5,,
87,,35,,
2,1,,1,
{16}2,4,3,7,
5,6,2,8,
3,7,5,6,
1,,5,5,
{16}2,8,4,5,
8,7,1,6,
2-5[8:1],,7,7,
2,,,,
{16}84,,73,,
82,,1,6,
,7,5,6,
4,,8,1,
{16}72,,61,,
25,,6,4,
5,3,8,5,
7-4[8:1],,,,
{16}7/3-8[8:1],,,,
35,,,,
16,,2,8,
,7,5,,
{16}2/4-8[8:1],,7,,
4/5<3[4:1],,6,,
3b>5[4:1],,,,
5b,,,,
||s4/4
{4}4h[4:1],1h[4:1],3h[4:1],8h[4:1],
{4}5h[4:1],,4h[4:1],1h[4:1],
{4}3h[4:1],,2h[4:1],1h[4:1],
{4}5h[4:1],,6h[4:1],7h[4:1],
{16}8,,,2,
42,,,3,
6,5,,7,
75,,,1,
{16}4,2,,2,
42,,,8,
5,7,,7,
1,4,2,8-4[16:1],
{12},,1b-6[16:1],
,7b-3[16:1],,
{16}2b-7[16:1],,,4b-8[16:1],
,,2b,,
{4}3h[4:3],,,5b<3[4:1],
||s4/4
{4}5b/3>5[4:1],5pp3[4:1],3>5[4:1],1,
{4}3qq4[4:1],4>6[4:1],6<4[4:1],4qq8[8:3]*qq8[8:3],
{8}5<8[8:1]*<8[8:1],,5,,2pp1[4:1],,1<6[8:1],6>7[4:1],
{8},4,,,5w1[8:1],,5,,
{4}2-5[8:1]/6-1[8:1],26,1p5[8:1]/5p1[8:1],5/1<2[20:7],
{4}1/4>7[4:1],7<8[16:5],5h[4:1],,
{16}78,,56,,
34,,2,1,
3,5,1,7,
4,5,2,8,
{16}3b/7b^4[8:1],,37,,
72,,1,8,
3,7,5,6,
1b,,,,
||s4/4
{16}3/6-3[8:1],,1,,
6,1,1,,
4-7[8:1],,2-5[8:1],2,
4,,2,,
{16}8,,7-3[8:1],5,
6,5,7,,
1-5[8:1],4,2,8,
1b,,7,,
{16}4/6-1[8:1],,2,,
6,4,4,,
8-4[8:1],,3-8[8:1],3,
8,,3,,
{16}6,1,4,3,
8,2,5,4,
7-4[8:1],8,6,2,
7b,,2,,
{16}6/3-6[8:1],,7,,
3,8,8,,
5-2[8:1],,7-4[8:1],7,
5,,7,,
{16}1,,2-6[8:1],4,
3,4,2,,
8-4[8:1],5,7,1,
8b,,2,,
{8}35,35,46,46,
57,57,68,68,
{16}3,8,5,6,
1,7,3,4,
2b-6[16:1],,,2b/8b-4[16:1],
,,1b/8b,,
{1},
,E
