&title=Schwarzschild
&artist=矢鴇つかさ
&first=-0.7
&des=yuyuyuyushiki
&lv_5=14
&des_5=yuyuyuyushiki
&inote_5=
(188){4},{8},,,,,,2,
2,{4}C,{8}3,3,{4}C,
8h[4:1],{8}7h[8:1],6h[8:1],{16},,,5h[16:3],,,,,{4}4,
{8},,,,4/3,4h[16:1]/3h[16:1],
,,,,,1/2,,1h[16:1]/2h[16:1],
,,,,,Ch[8:1],,,1,
8,2,7,3,6,4,5,
4h[1:1],,,5,,,E6,E7,
{16},B7,B8,B1,{8}B2,{16}E7,B6,B5,E3,B3,B4,,,,,{8}1-4[8:1],
8,1,8-5[8:1],1,8,2-6[8:1],1,
2,7-3[8:1],8,7,E3,E2,E1,E8,
1-5[8:1],8,1,8-4[8:1],1,8,2-5[8:1],1,
2,7-4[8:1],8,7,E8,E1,E2,E3,
4-8[8:1],4,{4}4/3,{8}6,5,6,5,
3-7[8:1],3,{4}4/3,{8}4,3,4,3,
5-1[8:1],5,{4}6/5,{8}5,4,5,4,
6-2[8:1],6,{4}6/5,{8}3,4,5,6,
{1}7h[8:7]/2h[16:15],
{8}7/2,8/1-4[8:1],,1/8-5[8:1],,8/1w5[8:1],,1,
,7x/3x,,E2,E8,E6,{4}E4,
{8}8/1,7-3[8:1]/2>4[8:1],,2-6[8:1]/7<5[8:1],,7-1[8:1]/2-8[8:1],,7/2,
,7x/2x,,E2,E4,E6,{4}E8,
{8}5/4,6-4[8:1]/3-7[8:1],,6-1[8:1]/3>1[8:1],,6>4[8:1]/3-5[8:1],,6/3,
,8x,2x,7,3,6,4,5,
1/5,6,7,8,1/5,2,{4}3/7,
{8}7/3,6,5,4,3/7,2,{4}1/5,
{8}7,8/1-5[8:1],2,1/8-4[8:1],7,8/1-5[8:1],2,1/8,
,4x,,E1,E7,E5,{4}E3,
{8}8/1,7/2-5[8:1],1,2/7-4[8:1],8,7/2-5[8:1],1,2/7,
,4x,,E1,E3,E5,{4}E7,
{8}6/3,5-1[8:1]/4-2[8:1],,5-7[8:1]/4-8[8:1],,5-1[8:1]/4-2[8:1],,5/4,
,8x,7x,1,6,2,5,3,
4,5,6,7,5,8,4,1,
3,2-6[8:1],8-4[8:1],2>5[8:1],8<5[8:1],2,{4}8,
{8}4x,3,2,5,6,7,8/1,7/2,
6/3,{16}4,5,4,5,4,5,4,5,4,5,{8}4w8[8:1],5/3,
4,,,,,8-4[8:1],1,2,
,,,,{4}2-5[8:1],5-8[8:1],
8-3-6[4:1],,,8<5-1[4:1]/1>4q8[4:1],
{16},,,,,,,,1,2,3,4,8,7,6,5,
4,,,3,,,{8}2,{16}5/1,,,6,,,{8}7,
{4}8/4,{8}8/1,7,6/1,2,7/3>8-2-4-6-8<5-3-1-7-5>3[4:31]*-7[8:1],6,
{1}3,
{2},,,,,Cfh[2:1],
{8},,,,,,,,,Ch[16:1],
,,,Ch[16:1],,,,,,Ch[16:1],
{2}Ch[16:1],
{8},Ch[16:1],{4}Ch[16:1],,2,
1pp4[8:13],1,,8,
,7,{12}8-4[8:1],8,8,8,,,{4}5xpp8[8:13],
5,,4,
{12},,,3,3,3,{4}3v8[8:1],3,
1xpp5[8:13],1,,8,
,7,{12}1-5[8:1],1,1,1,,,{4}4xqq8[8:13],
4,,5,
{12},,,4,4,4,{4}4-8[8:1],4,
1-5[8:17],{16},,,,,,,,1,8,7,6,
1,2,3,4,1,8,7,6,1,2,3,4,1,8,7,6,
{2}1x,{16}3,4,3,4,{8}3,{16}4,5,
6,7,{8}8,{24},,,1,2,3,,,,6,7,8,,,,3,4,5,
,,,6,5,4,,,,5-1[8:1],4,3,4-8[8:1],5,{12}6,{48},,,,,,,,,,,,,,,,{16}1,
2,3,4,{8}5,{24}8,7,6,,,,3,2,1,,,,6,5,4,
,,,3,4,5,,,,4-8[8:1],5,6,5-1[8:1],4,{12}3,{48},,,,,,,,,,,,,,,,{16}8x,
7,6,5,{8}4,{24}1,2,3,,,,2,3,4,,,,3,4,5,
{48},,,,,,{16}4,3,2,1,8,7,6,5,4/8,7/3,6/2,5/1,4,3,
2,1,8/4,3/7,2/6,1/5,8,7,6,5,4/8,3/7,2/6,1/5,4,3,
2,1,8/4,3/7,2/6,1/5,,,4-8[8:1],8-4[16:1],{8}4,{16},,,,E7,
C,{8}E3,{24},,,8/4,7/3,6/2,{6}1h[8:1]/5h[8:1],{24}6/2,7/3,{12}8h[8:1]/4h[8:1],{24},,7/3,6/2,
{8}1h[8:1]/5h[8:1],{24},,,,,,7<5[8:1],8,1,2>4[8:1],1,{12}8,{48},,,,,,,,,,,,,,,,{16}5,
6,7,8,{8}1h[8:1],{24}5,4/8,3/7,{6}6h[8:1]/2h[8:1],{24}3/7,4/8,{12}5h[8:1]/1h[8:1],{24},,8/4,7/3,
{8}6h[8:1]/2h[8:1],{24},,,,,,6-1[8:1],5,4,2-5[8:1],1,{12}8,{48},,,,,,,,,,,,,,,,{16}1,
8,7,6,{8}5h[8:1],{24}1,6/2,7/3,{6}8h[8:1]/4h[8:1],{24}7/3,6/2,{12}5h[8:1]/1h[8:1],{24},,6/2,7/3,
{16}8h[8:1]/4h[8:1],,,3/7,2/6,1/5,8/4,7,6,5,4,3/7,2/6,1/5,8/4,3,
2,1,8,7/3,2/6,1/5,8/4,7,6,5,4,3/7,2/6,1/5,8/4,3,
2,1,8,7/3,6/2,5/1,4/8,7,6,5,4,3/7,2/6,1/5,8/4,3,
2,1,{8}8,{24}1,2,3,8,7,6,1,2,3,4,5,6,7,8b,{48},,,,,,,,{16}2,
3,{8}2,{16}3,4,{8}3,{16}4,5,{8}4,{16}5,6,{8}5,
{16}7,6,{8}7,{16}6,5,{8}6,{16}5,4,{8}5,{16}4,3,{8}4,
{16}1,2,1,2,8,3,8,3,7,4,7,4,6,5,6,5,
6,7,8,1,{24}2,3,4,3,4,5,{16}2,1,8,7,{24}6,5,4,5,4,3,
{16}1,8,7,6,8,7,6,5,7,6,5,4,6,5,4,3,
1,8,7,6,5/1,2,3,4,5/8,7,6,5,4/8,1,2,3,
4/8<3[16:5],7<2[16:5],6>1[16:5],5>8[16:5],A8,A7,A6,A5,A4,A3,A2,A1,{4}A8,
{8}Cf,,,,,,,E8,
,E3,,D6,,E4,{4}D2,
{1},{4},,{24}1,
2,3,2,3,4,3,4,5,4,5,6,
,,,,,,,,,,,,,,,{8}E8,,E2,
,E5,,E7,,E4,{4}E1,
{1},{4},,{24}8,
7,6,7,6,5,6,5,4,5,4,3,
E
