&title="Eureka"
&artist=sasakure.UK x ArmyTom (w/z Bitplane)
&first=0.22
&lv_5=14.9
&des_5="MissP"
&inote_5=
(150){4},5bx<4-6-8-2-4q8q4b[8:13],{1},{4},,,4bx>5-3-1-7-5p1p5b[8:13],
{1},{4},,,{8}4bx,
B6,{16}B2,E8,B3,E7,{8}E3,{16}B7,E2,
B6,E3,{8}E7,4bx,{16}E8,E7,E6,E5,{8}E4,{16}E1,E2,E3,E4,
{4}E5,{8}5bx,{16}A7,D7,A6,D6,{8}A5,{16}A3,D4,A4,D5,
{4}A5,{16}4bV26[8:1],{8},{16}5b,,5bV71b[8:1]*<8[8:1],{4},{8},(300){64}A8,
E1,A1,D2,E2,B1,B8,E8,D8,A7,D7,E7,B6,C,B3,E3,A2,E4,B4,E5,A5,A4,{32}D5,{8},(150){16}2-6[8:1],4,3,4,{4}2,
{16}2v5[8:1]*<8[8:1],4,3,4,{4}2bx,{16}7-3[8:1],5,6,5,{4}7,
{16}7q4[8:1]*-1[8:1],5,6,5,{4}7bx,{16}2-6[8:1],4,3,5,{4}2,
{16}2-5[8:1]*<7[8:1],5,3,5,{4}2bx,{16}7-3[8:1],5,6,4,{4}7,
{16}7-1[8:1]*v4[8:1],4,6,4,{4}7bx,{24}3-7b[8:1],4,3,4,3,4,{4}3b,
8xw4[12:1],8h,{16}4,5,3,6h,5h,7h,3,4,
{4}2-6[8:1],2/6b,{16}3,4,2,6,5,7,3,4,
{4}2<7[8:1]*>5[8:1],2,{16}5,6,5,6,4,7,4,7,
{24}3,8,3,8,3,8,{32}3,{64}E4,A4,E5,A5,E6,A6,E7,A7,E8,A8,E1,A1,E2,A2,{4}3h[2:1]/E3,{16}4,5,6,7>4[16:3],
,4,5,6,{4}7,6h[2:1],{16}5,4,3,2<5[16:3],
,5,4,3,{4}2,4h[2:1],{16}5,6,7,8V24[16:3],
,5,6,7,{4}8,7h[2:1],{16}6,5,4,3V17[16:3],
,6,5,4,{4}3,5h[8:1]/3h[8:1],{16}3,5,4,5-1[8:1],
,4,6,5,{4}7,4h[8:1]/6h[8:1],{16}6,4,5,4-8[8:1],
,5,3,4,{4}2,1h[8:1]/3h[8:1],{16}3,1,2,1-5[8:1],
,2,8,1,{4}7,{24}2/1h[24:5],3,4,5,6,7,8,1,2,3,4,5,
1,8,7,6,5,4,3,2,1,8,7,6,{4}5h[2:3]/4h[24:5],4h[24:5],
4h[24:5],4h[24:5],4h[24:5],4-1[8:1]*>8[16:3],
{64}4,{4},{64}5b,{96},{24}4b,{6},{4}4h[2:3]/5h[24:5],5h[24:5],
5h[24:5],5h[24:5],5h[24:5],5<4[4:1]*V71[8:1],
{16}5,{4},{16}Ch[8:1],{8},{64}4xh[4:1],{192}A8,D8,{64},{48}E8,A7,B7,E7,B6,A6,E6,D6,{24}A5,{4},{48}A8,
D1,E1,A1,B1,E2,B2,A2,E3,D3,{24}A3,{4},{48}D8,E8,A7,B7,E7,B6,A6,E6,D6,B5,A5,E5,{4},{48}D2,
E2,B2,A2,E3,B3,A3,E4,D4,A4,B4,E5,{24}D5,{6},{24}5x-1b[3:4],{48}D6,E6,A6,B6,E7,D7,B7,A7,E8,D8,{24}A8,{4},{48}D5,
E5,A4,B4,E4,D4,B3,A3,E3,D3,{24}A2,{4},{16}6x,,{24},4x,{6},{24}6x,{12},{64}B5,
C,{96}B1,A1f,{4},{16},,,{96},{24}3/1h[8:1],4,{12}5,{24}2/8h[8:1],3,{12}4,{24}1/7h[8:1],2,{12}3,
2xh[24:1]/8xh[24:1],3/7,3h[24:1]/7h[24:1],4/6,{6}4h[24:1]/6h[24:1],{24}7/1h[8:1],6,{12}5,{24}8/2h[8:1],7,{12}6,{24}1/3h[8:1],8,{12}7,
4xh[24:1]/6xh[24:1],4/6-2[0.4667##0.1333],7h[24:1]/3h[24:1],4/6,{6}4h[24:1]/6bh[24:1],{24}3,4,{12}5,{24}2/8h[8:1],3,{12}4,{24}1/7h[8:1],2,{12}3,
3xh[24:1]/5xh[24:1],2/6,2h[24:1]/6h[24:1],7/1,7h[24:1]/1h[24:1],7/1,{24}8/3h[8:1],7,{12}6,{24}7/2h[12:1],6,{12}5,{24}6/1h[8:1],5,{12}4,
{24},1x,2x,3x,4x,5x,{32}A8,D8,A7,D7,A6,D6,A5,D5,{24}1/A4,2,3,4,5/1bh,6,7,8,1b,2,3,4,
5/1bh,6,7,8,5/1bh,4,3,2,1b,8,7,6,5/1b,2,3,4,5/1bh,6,7,8,5/1bh,4,3,2,
5/1bh,6,7,8,5/1bh,4,3,2,5/1bh,6,7,8,5/1bh,6,7,8,1bh,2,3,4,5/1bh,2,3,4,
5/1bh,2,3,4,5/1bh,2,3,4,5/1bh,2,3,4,5/1bh,2,3,4,{12}5/1bh,{96}1,{48},{96}2,{48},{32}3,4,1,2,3,4,
1,2,3,4,8,7,6,5,8,7,6,5,8,7,6,5,1,2,3,4,8,7,6,5,2,3,4,5,7,6,5,4,
1,2,3,4,8,7,6,5,1,2,3,4,1,2,3,4,8,7,6,5,8,7,6,5,1,2,3,4,6b,7b,8b,1b,
2b,3b,4b,5b,6b,7b,8b,1b,{4}2bx>2[1:1],,,,2xV46V82[1:1],
,,,2xpp6pp2[8:13],
,,,{16}3,
{8},{16}4,,4,{8},{4}4h[8:1],
{32}A5,D5,A4,D4,{8},{4}3V17V53[1:1],,,,3p7<3[1:1],
,,,3V57V13b[2:3],
{2},{1}Ch[1:1],
{4},{16}2-6[8:1],4,3,5,{4}2,{16}6-2[8:1],4,5,3,
{4}6,{16}4>1[8:1],6,5,7,{4}4,{16}8<5[8:1],2,1,3,
{4}8,{16}1V35[2:1],B8,B7,B6,{4}B5,{16}A6,D7,A7,D8,
{4}A8,{16}5V71[2:1],{8},{16}3,,3h[16:1],{8},{32}B4,B3,B2,B1,{8},{4}Ch[16:3],
1h[4:1]/5h[4:1],,{12}5-1[8:1]/1-5[8:1],2/6,3/7,
{4}1/5,{16}2V46[2:1],B1,B8,B7,{4}B6,{16}A7,D8,A8,D1,
{4}A1,{16}8V64[2:1],B1,B2,B3,{4}B4,{16}A3,D3,A2,D2,
{4}A1,{16}A4,A5,A3,A6,{4}2xh[4:1],Cfh[2:1],
,{16}2,1b-5b[16:49],2,6,5,7,2,3,1,6,5,7,
3,4,2,5,4,6,2,4,3,7,5,6,1,3,2,8,
6,7,2,4,3,7,5,6,2,4,7,5,1,3,7,5,
1,3,8,6,1-5[8:1],3,7,5,{4}1,{16}5-1[8:1],3,4,2,
{4}5,{16}7,8,6,2,1,3,6,7,5,3,2,4,
7,5,6,2,4,3,7,6,8,2,1,3,6,5,7,4,
5,3,6,2,4,7,5,1,4,8,6,2,4,7,5,1,
3,8,5,4,{8}5h[16:1],4h[16:1],5V71[4:1],{24}4,5,4,5/1b,2,3,4,{12}5h[24:5],
{4},8-6[8:1]/2-6[8:1],2/8-4[8:1],8-5[8:1]/1-4[8:1],
8/1,7>3[8:1]/1-4[8:1],7/1-5[12:1],8-6[8:1]/1-3[8:1],
1/8,4p8[8:1]/8p4[8:1],8>3[8:1]/4<7[8:1],8-4[8:1]/4-8[8:1],
4/8,5q1[8:1]/1q5[8:1],1<6[8:1]/5>2[8:1],1-5[8:1]/5-1[8:1],
5/1,6h[16:3]/3>8[8:1],7h[16:3]/3<5[8:1],{8}6/3-7[8:1],6,
{4}3/5h[16:3],4h[16:3]/7>2[8:1],3h[16:3]/7<5[8:1],4h[16:3]/7-3[8:1],
7/2h[16:3],{16}7h[8:1]/3h[8:1],{8},{16}5h[8:1]/1h[8:1],{8},2h[8:1]/6h[8:1],{16},3h[8:1]/7h[8:1],{8},{4}1h[8:1]/5h[8:1],
{64}A8,E1,A1,D2,E2,B1,B8,E8,D8,A7,D7,E7,B6,C,B3,E3,A2,E4,B4,E5,A5,A4,{32}D5,{8},{64}A5,E5,A4,D4,E4,B4,B5,E6,D6,A6,D7,E7,B7,C,B2,E3,
A3,E2,B1,E1,A8,A1,{32}D1,{8},{24}2/1h[8:3],3,4,5,6,7,{12}8,{24}2,3,{12},2h[24:1]/8h[24:1],2h[24:1]/8h[24:1],3h[24:1]/7h[24:1],
3h[24:1]/7h[24:1],4h[24:1]/6h[24:1],4h[24:1]/6h[24:1],{24}5h[12:5],7,8,1,2,3,{12}4,{24}6,7,{12}8,{24}4,6,4,6,4,6,
4,5b,5b,5b,5b,5b,{8}3h[16:3],2h[16:3],{4}1h[16:3],{12}2h[24:1]/8h[24:1],2h[24:1]/8h[24:1],3h[24:1]/7h[24:1],
3h[24:1]/7h[24:1],4h[24:1]/6h[24:1],4h[24:1]/6h[24:1],{24}5h[12:5],3,2,1,8,7,{12}6,{24}4,3,{12}2,{96}8h,{48},{96}7h,{48},{32}6h,5xh,8x,7x,6x,5x,
4x,3x,2x,1x,4h,3h,2h,1h,{24}8h[12:5],4,3,2,{12}1,{24}7,6,5,4,{12},3h[24:1],3h[24:1],2h[24:1]/4h[24:1],
2h[24:1]/4h[24:1],1h[24:1]/5h[24:1],5h[24:1]/1h[24:1],{24}1h[8:3],6,7,8,,2,3,4,5,6,{12}7,8xh[24:1],7xh[24:1],8xh[24:1],
{48}Ch[6:1],A1,D2,A2,D3,A3,{8}D4,{24}5/1,4/8,3/7,2/6,1/5,8,7,6,5,4,3,2,{12}1bxh[24:1],2bxh[24:1],3bxh[24:1],
4bxh[24:1],5bxh[24:1],6bxh[24:1],{24}8b,7,6,5,4,3,2,1,8,7,6,5,1b,2,3,4,5,6,
7,8,1,2,{12}3,{24}5bw1b[8:1],4b,5b,4b,5b,4b,{4}5bh,{12}2xh[24:1]/8xh[24:1],2h[24:1]/8h[24:1],3h[24:1]/7h[24:1],
7h[24:1]/3h[24:1],4h[24:1]/6h[24:1],,{24}5,4h,5,4,5h,4,5,3h,6,2,7h,1,{4}8V64[8:1],
{24}8/4b,3,2,1,{12},{24}8/1xh[12:5],7,6,5,4,3,{12}2,{24}8,7,{12}6,{24}1bh,2,8bh,7,2bh,3,
7bh,6,1bh,2,{12}3,{24}5b/8h[12:5],6,{12}7,{24}1,2,3,4,5,6,{12}7,{96}1,{48},{96}2,{48},{32}3,4,1xh,2xh,3xh,4xh,
5xh,6xh,7xh,8xh,5,6,7,8,{48}A1,B8,B1,B7,E2,E7,B2,C,B6,B3,B5,B4,{4}Cfh[48:0],{12}3h[24:1]/5h[24:1],3h[24:1]/5h[24:1],2h[24:1]/6h[24:1],
6h[24:1]/2h[24:1],1h[24:1]/7h[24:1],,{32}8b,7,6,1b,2,3,7b,6,5,1b,2,3,7b,6,{16}5,{12}4w8[12:1],4,4,
{4}4bx,{24}5/1,2/6,3/7,4/8,5,6,7,8,1,2,3,4,{12}8h[24:1],8h[24:1],1h[24:1]/7h[24:1],
1h[24:1]/7h[24:1],2h[24:1]/6h[24:1],,{24}5/1h[32:15],4,3,2,,8,7,6,5,4,{12}3,{24}2,3,4,5,6,7bw3b[8:1],
{32}8bw4b[16:1],1b,2b,3b,4b,5b,6b,7b,{4}8b,
