&title=Constellate
&artist=Chime × The Wind Elementals
&first=0.18
&des=In_Cyan
&lv_5=13+
&des_5=In_Cyan
&inote_5=
(150){4},{1},,,{4},{48}E8,
D8,{4},,,{16},,,{48},E2,
D2,{4},,,{16},,,{48},E6,
D6,{4},,,{16},,,{48},E4,
D4,{4},{16},,,{48},{1}E4h[24:25]/E6h[12:13]/B3h[8:9]/B6h[6:7]/E7h[24:29]/E3h[1:1],
{16},,,,,,,,,,,,,,,,4,
,,6/5h[16:3],,,{8}7>2[4:1],,,{4}C,
{16}4,,,3/4h[16:3],,,{8}2>5[4:1],,,{4}C,
{16}6,,,5/7h[16:3],,,{8}8>3[4:1],,,{4}C,
{16}3,,,4/2h[16:3],,,{8}1<6[4:1],,,{4}Ch[8:1],
{16}4,,,3/4h[16:3],,,{8}2<7[4:1],,,{4}C,
{16}5,,,6/5h[16:3],,,{8}7<4[4:1],,,{4}C,
{16}3,,,4/2h[16:3],,,{8}1<6[4:1],,,{4}C,
{16}6,,,5/7h[16:3],,,{8}8-2v5[4:1],,6,{4}Cf,
{16}7h[8:1],,,5h[8:1]/6h[8:1],,,{8}2/4-6-3[4:1],,,{4}C,
{16}2h[8:1],,,4h[8:1]/3h[8:1],,,{8}7/5>7[4:1],,,{4}C,
{16}6h[8:1],,,5h[8:1]/4h[8:1],,,{8}4/2qq5[4:1],,,{4}C,
{16}7h[8:1],,,6h[8:1]/5h[8:1],,,{8}1/4-7-5-1[4:1],,,{4}Cf,
{8}2h[8:1],{16}4,3h[8:1],,5,{8}4h[8:3]/6-3[8:1],,,,,7h[8:1],
{16}5,6h[8:1],,4,{8}5h[8:3]/3-6[8:1],,,,,3h[8:1],
{16}1,2h[8:1],,8,{8}1h[8:3]/7-5[8:1],{16},,,,,,,4/3,
4/3h[16:3],,,5,{8}4,5/7h[4:1],{16},,1,2,7,6,4,4,
{1}3bh[2:3]/E3f,
{4},,2<7[8:1],{32}5bxw1[8:1],4x,3x,2x,,,,,{1}5x-3-6-2-7-1b[4:5],
{8},,,,,Cfh[8:1],{16},,,,5,
3,6,4,7,7,5,6,3,4,,4,{8}2,1/8,
{16}2,4,,4,3,7,5,6,2,4,{8}3,{4}1/8h[8:1],
{16}1x,2,3,4,7x,6,5,4,2x,2x,3x,3x,4x,4x,3x,1x-6-3-8-5[16:9],
{4}2x-7-4-1-6[2:1],,,D6f/A6/A5,
{32}4bx<7[8:1],3bx,2bx-6[16:1],1bx,{4},{16},,{48}8h[4:1]/5-2[8:1],,,,,,,,,,,,,E8,B7,B6,{6}E6,
{48}8h[4:1]/5-2[8:1],,,,,,,,,,,,,E8,B7,B6,{6}E6,1h[4:1]/4<7b[8:1],{48},,,,,D2,A2,D3,A3,D4,,,,,,,{2}8-4[8:1]/1s5[8:1],
{16}2,4,,4/3,,6,{8}5,
{16}5,7h[8:1],,5,{8}6h[8:1],{16}4,5,{8}2bh[8:3],E2,E1,E8,
{2}5q1[8:1]/6v8[8:1],{48}1xh[4:1]/4-7[8:1],,,,,,,,,,,,,E2,B2,B3,{6}E4,
{48}1h[4:1]/4-7[8:1],,,,,,,,,,,,,E2,B2,B3,{6}E4,8h[4:1]/5>2b[8:1],{48},,,,,D8,A7,D7,A6,D6,,,,,,,{2}1-5[8:1]/8z4[8:1],
{16}7,5,,5/6,,3,{8}4,
{16}4,2h[8:1],,4,{8}3h[8:1],{16}5,4,{8}7bh[8:3],{16}D1,D8,D7,D6,{8}D5,
{2}4xp8[8:1]/3xv1[8:1],{32}7>2[8:1],6,{16}5-1[16:1],{32},,,,,,,,,,,,2x-6[8:1],
3,{16}4x-8[16:1],{32},,,,,,,,,,,,1x/5x,2v5[32:3]`6-1[32:3],{16}3/7,,,,,,,{4}4h[2:1],
{16}3,3,,,{4}5h[2:1],A6,
{8}3,3,{16}4,4,{8}3h[4:1],{16}E3,,,4,{32},,,,,,,,5bx>2[8:1],
6bx,7bx-3[16:1],8bx,,,,,,,,,,,,,{4}1>4[8:1],{32}5x-1[8:1],6x,7x,8x,,,,,8x-4[8:1],
7x,6x,5x,,,,,5x>2[8:1],6x,7x,8x,,,,,1x-5[8:1]*v4[8:1],8x,7x,6x,,,,,{4}1x,
3h[4:1]/6-4[8:1],6<4[4:1],2b,1-5[8:1],
1b/7-3[8:1],7b/8b,{16}2,1,3,8,{4}4-1[8:1],
{48}5p4>6[4:7],E4f,B3,B2,{12}E2,{1},{4},,,{12},{4}E5,
E7/B6,E3/B2,E1,
{8}4h[16:1]/5h[16:1],4/5,,,,,{4}4z8[8:1]/5s1[8:1],
4>5<4[2:3],E1,E2,E3,
E4,E5,E6,E7h[8:1],
{16}1x,2,3,4,7x,6,5,4,2x,2x,3x,3x,4x,4x,3x,1x-6-3-8-5[16:9],
{4}2x-7-4-1-6[2:1],,,D6f/A6/A5,
{16}4x/5x,3x,2x,1x,{32}8x,,,7x,,,{16}6x,{48},5x,,,,4x,,,,{16}3x,2x,1x,8x,7x,
{24}6x,5x,4x,3x,2x,1x,{12}8x,7x,6x,{6}5x,4x,3x,
{2}2x-5[8:1]/5x-1[8:1],{8}7h[8:1],{24}5,,5,,,{12}6,6,
{8}2h[8:1],{24}4,,4,,,{12}3,3,{8}6h[8:1],{24}5,,6,,,{12}4,5,
{32}3x,2x-6[32:3],{16}1x-5[16:1],,,,,,,{8}7/4,{16}5,6,,4,{8}5,
2/6,{16}4,3,,5,{8}4,6/1,{16}8,7,,1,{8}8,
{2}8-4[8:1],{8}2h[8:1],{24}4,,4,,,{12}3,3,
{8}7h[8:1],{24}5,,5,,,{12}6,6,3h[24:1],4h[24:1],3h[24:1],4,5,4,
{32}6x,7x-3[32:3],{16}8x-4[16:1],,,,,,,3x,4,4,4,3,5,5,5,
{4}4h[4:1],{16}7,5,5,5,6x,4,4,4,{8}5,6,
{2}5q1[8:1]/6v1[8:1],{32}2,3,4,5h[32:7],,,{16}6,,7,{32},,,,7,
6,5,4h[32:7],,,{16}3,,1,{8}1,{32}2,3,4,5h[32:7],,,{16}7,,,{8}7,
{2}8V25[8:1]/1v4[8:1],{16}7,5,5,5,6,4,4,4,
{4}5h[4:1],{16}3,4,4,4,3,5,5,5,{8}4x,6x/5x,
{4}E7h[4:1],E6h[4:1],E5h[4:1],E4h[4:1],
{2}E3h[4:1],Ch[2:1],
{4},,,,5,
5,4,4,
{8}6/5,7,5/4,3,2/4,1,{4}1/8,
4z8>1s5[2:1]/5s1<8z4[2:1],,,D5f/A4/A5,
{32}6x/3x<5v8[4:1],2x/7x,{16}1x/8x,,,,,,,{4}7b,{16}6/2,,,3/4,
{4}3/4<7[8:1],{8}2-5[8:1],{16}1,1,{8}2,7,{4}8-3[8:1]*-2[8:1],
8<5[8:1],8/4w8[8:1],4,{16}6/2,,,4,
{8}3h[8:1],{16}5,4,{8}4,{16}6,5,{8}7h[8:1],{16}8,8,{4}6v1[8:1],
{32}2,3,4,5-3-8[32:5],{4},,{16},,3/7,,,6/5,
{4}6/5>2[8:1],{8}7-4[8:1],{16}8,8,{8}7,2,{4}1-6[8:1]*-7[8:1],
1>4[8:1],1/5w1[8:1],5,{16}7/3h[16:3],,,4,
{8}4,5/6,{16}5h[16:3],,,6,{4}5-1[8:1],7-4[8:1],
2,4/3h[4:1],6b,{24}7x,6x,5x,1x,2x,3x,
8x,7x,6x,2x,3x,4x,{8}8x,8xh[24:5],{24},,,D8,E7,E6,{4}3xh[4:1]/E5,
4-8[8:1],{8}3,3,{32}7xq3[8:1],6x,5xq1[16:1],4x,,,,,,,,,,,,,2xp6[8:1],
3x,4xp8[16:1],5x,,,,,,,,,,,,,1x-5[8:1]`5x-1[8:1],6x/2x,7x/3x,8x/4x,,,,,,,,,,,,,{8}2/6,
3,{4}4/5,{16}3,6,5,6,2,5,4,5,
1,4,3,4,8,1,2/6,3/7,{4}8/4-8[8:1],7-3[8:1],
{1}1bw5[1:1],
E
