&title=パジャミィ
&artist=いよわ
&first=0.07
&des=胃弱牛逼
&lv_5=14
&inote_5=(197)
{1},
{4}6,6,{16}4,5,4,5,4,5,4,5,
{8}3h[4:1],6,7h[4:1],4,{4},{8}2h[4:1],5,6h[4:1],3,{4},{8}48,7,26,3,
{4}4^1[8:1],5^8[8:1],{8}3,3,6,6,{4}2-5[8:1],26,7-4[8:1],37,
{8}2h[4:1],5,6h[4:1],3,{4},{8}3h[4:1],6,7h[4:1],4,{4},{8}15,2,37,6,
{4}5^8[8:1],4^1[8:1],{8}6,6,3,3,7,{16}5,5,{8}6,6,{4}4-1[8:1]/8-5[8:1],48,
{8}7h[4:1],4,3h[4:1],6,{4}6,{8}6h[4:1],3,2h[4:1],5,{4}5,{8}51,2,73,6,
{4}5^8[8:1],1^4[8:1],{8}6,6,2,2,{4}7-4[8:1],73,2-5[8:1],62,
{8}6h[4:1],3,2h[4:1],5,{4}5,{8}7h[4:1],4,3h[4:1],6,{4}6,{8}48,7,26,3,
{4}4^1[8:1],8^5[8:1],{8}3,3,7,7,2-5[8:1],5-1[8:1],2,7,{4}7-3[8:1]*-4[8:1],7b,
{4}6pp5[4:1],4,3^8[4:1],5,{8}7,7,1,1,6,2,5,3,4,4,6,6,2,{4}2V41[4:1],{8}1-5[8:1],
{2}7h[4:1],7h[4:1]/5,
{8}3qq4[4:1],3,{4}5,{8}6^1[4:1],6,{4}4,{8}2,2,8,8,3,7,4,6,5,5,3,3,7,{4}7V58[4:1],{8}8-4[8:1],
{2}2h[4:1],2h[4:1]/4,
{8}6pp5[4:1],7,{4}4,{8}3^8[4:1],2,{4}5,{8}7,7,1,{4}1h[4:1],{8}5,5,2,6,3,5,4,{4}4^1[4:1],1^6[4:1],6,{8}5,5h[8:3],{4},1,
{1}2z6[2:3]/8s4[2:3],,
{8}45,,,67,,,18,,,23,{4},5^8[8:1]/4,5-1[8:1]*-2[8:1],5,
{8}3/7-1[8:1],{16}6,5,{4}7-3[8:1],7/2^7[8:1]*^5[8:1],2-6[8:1],26,
{8}7-4[8:1],7,{4}5-1[8:1]*-2[8:1],5,
{8}3/7-1[8:1],{16}6,5,{4}7-3[8:1],7/2^7[8:1]*^5[8:1],2-6[8:1],26,7h[4:1],
{8}3^8[8:1],6,3-7[8:1],7-4[8:1],3,6,{4}6-1[8:1],{8}6^3[8:1],3-7[8:1],{4}6,{8}2,1,{4}1-5[8:1]*-6[8:1],1,37,{12}3,4,3,{4}2-6[8:1]/5,2/5-1[8:1]*-8[8:1],5,37,2-5[8:1]/6-2[8:1],26,48,
{8}6/2-8[8:1],{16}3,4,{4}2-6[8:1],2/7^4[8:1]*^2[8:1],7-3[8:1],37,{8}2-5[8:1],2,{4}4-8[8:1]*-7[8:1],4,{8}6/2-8[8:1],{16}3,4,{4}2-6[8:1],26,
{12}7,5,6,2,4,3,{4}8w4[8:1],8,
{8}2^5[8:1],6,2,7,7-4[8:1],4-8[8:1],7,2,2-6[8:1],6-4[8:1],2,7,8,8,{4}7h[4:1],
{8}3,3,{4}6h[4:1],{8}3h[8:1],4,5h[8:1],4,26,{16}3,4,{8}3,1,{16}7,6,5,4,1,2,3,4,
{1}8<1[1:1],{2}4h[2:1],{4}8,{8},7,
(98.5)
{12}7^5[8:1]/5,4,3,{4}2h[6:1],{12}6pp1[4:1],4,4,6,3,3,{6}2^5[8:1],{24}3,1,{12}2,8,8,{4}7h[4:1]/5,
{24}2,4,3,5,{12}1h[12:1],{24}7-2[8:1],7,8,{8},{24}1,2,3,4,{12}5h[12:1],{24}6-3[8:1],6,4,{8},
{12}3,2,1,{4}8h[6:1],{12}48,1,2,{4}3^5[12:1]/7^5[12:1],37,
{12}7-1[8:1],2,2,7qq4[4:1],3,3,{4}7,{12}2-7[8:1],1,1,2/6-3[8:1],5,5,{6}26,{24}2,2,{4}4h[4:1],
{12}2-8[8:1],6,{24}3,4,{4}2,{12}7-3[8:1],2,2,{6}37,{12}4>5[4:1],{4}4,{6},{12}8,8h[4:1],4,4,{4}4b-6[12:1],4>6[8:7],{1},
(197)
{4}8,{8}48,48,37,37,26,26,{16}15,6,7,8,1,2,3,4,{4}5/1h[4:1],{8}6,6,
{16}2,,2,4,3,,7,5,6,,3,4,1,,6,5,{8}8,8,37,37,26,26,{4}1^4[8:1]/5^8[8:1],{2},
{4}6-2[8:1],3-8[8:1]*-7[8:1],3b,{8}1-7[8:1]/5,{16}2,4,{4}1-5[8:1],1^4[8:1]/6^1[8:1],6-4[8:1]/1,26,
{8}3-7[8:1],3,{4}8-4[8:1]*-3[8:1],8,{8}2-8[8:1]/6,{16}3,4,{4}2-6[8:1],2^5[8:1]/5^8[8:1],2-8[8:1]/5,26,
{8}7,7h[8:1],1,1h[8:1],{4}8^5[8:1],{8}8-3[8:1],3-7[8:1],{4}8,{8}2-5[8:1],5-1[8:1],{4}2,{8}7-3[8:1],3-7[8:1],{4}7,
{8}2,2,{4}1h[4:1],{12}7,8,7,{4}1^4[8:1]*^6[8:1]/6,1w5[8:1],1,37,6-2[8:1]/2-5[8:1],26,48,
{8}3/7-1[8:1],{16}6,5,{4}7-3[8:1],7^4[8:1]/4^1[8:1],4/7-1[8:1],37,
{8}2-6[8:1],2,{4}7-3[8:1]*-4[8:1],7,{8}1-7[8:1]/5,{16}2,4,{4}1^4[8:1],15,
{12}7,5,6,2,4,3,{4}8w4[8:1],8,
{8}2^5[8:1],6,2,7,7-4[8:1],4-8[8:1],7,2,2-6[8:1],6-4[8:1],2,7,8,8,7,7h[8:1],
{8}3,3,{4}6h[4:1],{8}3h[8:1],4,5h[8:1],4,26,{16}3,4,{8}3,1,{16}7,6,5,4,1,2,3,4,
{1}8<1[1:1],4h[2:1],
{4}8bw4[8:1],8,2h[8:1]/6h[8:1],2h[8:1]/4h[8:1],3/5w1[8:1],5,{8}37,6,15,2,{4}3^8[8:1],7^4[8:1],{8}2,2,6,6,{4}6-2[8:1]/2-5[8:1],62,8^5[8:1]/4^1[8:1],84,
{4}6h[8:1]/2h[8:1],2h[8:1]/4h[8:1],7h[8:1]/3h[8:1],7h[8:1]/5h[8:1],4w8[8:1],4,{8}26,3,48,7,{4}6^1[8:1],2^5[8:1],{8}7,7,3,3,
{8}7,{16}5,5,{8}6,4,{4}4-1[8:1]/8-5[8:1],48,
{4}2h[8:1]/6h[8:1],3h[8:1]/5h[8:1],3h[8:1]/7h[8:1],4h[8:1]/6h[8:1],{8}7,7,{4}58,{8}26,3,48,7,{4}6^1[8:1],2^5[8:1],{8}7,7,3,3,{4}6-1[8:1],{8}26,3,{4}4-8[8:1]*-7[8:1],4,
{4}1w5[8:1],1,1^4[8:1]*^6[8:1],1,8w4[8:1],8,{8}26,26,37,37,
{4}8,4,{8}7,7,5,5,{4},6b-2[8:1],
